Гра пам'яті / Backtrace (2018) 1080p 2xUkr/Eng

Нові коментарі

Нова тема   Відповісти
Автор Повідомлення
Anonymous 







2020-06-30 23:47  
Гра пам'яті / Backtrace (2018) 1080p 2xUkr/Eng

Гра пам'яті / Backtrace (2018) 1080p 2xUkr/Eng


Жанр: екшн, кримінальний, драма
Країна: Канада, США



Кінокомпанія: Emmett, Furla, Oasis Films (EFO Films), Happinet, Highland Film Group (HFG), The Fyzz Facility, Potato Eater Productions, Diamond Films, Dreamscape Productions
Режисер: Браян А. Міллер
Актори: Сильвестер Сталлоне, Раян Ентоні Гузман, Меттью Модайн, Медоу Вільямс, Крістофер Макдональд, Колін Еглсфілд, Лідія Хал, Хезер Йогансен

Сюжет:
Пограбування інкасаторської машини пішло зовсім не за планом. Майже всіх грабіжників убили, крім МакДональда — його залишили в живих, але посадили до психіатричної в'язниці під охороною. Цей інцидент сильно вплинув на чоловіка — у ході зіткнення його мозок ушкодився, через що в нього зараз провали в пам'яті. На сьомому році свого ув'язнення МакДональда змушують втекти один зі злочинців і доктор у тюрмі. Його накачали експериментальним наркотиком, який повинен повернути йому пам'ять. Адже гроші після того пограбування так і не знайшли… Спіймати грабіжників доручили досвідченому детективу Сайксу. Вони повинні знайти ту точку, із якої все починалося, щоб домогтися своїх цілей. Там же все і закінчиться.


Тривалість: 01:36:43
Якість: 1080p
Відео:
кодек:
розмір кадру: 1920x1040
бітрейт: 10,8 Mб/с

Аудіо # 1:
мова: українська
переклад: професійний дубльований | AAASound
кодек: 2.0
бітрейт: 192 кб/с

Аудіо # 2:
мова: українська
переклад: багатоголосий закадровий
кодек: 2.0
бітрейт: 192 кб/с

Аудіо # 3:
мова: англійська
переклад: оригінал
кодек: 2.0
бітрейт: 192 кб/с
Info
General
Unique ID : 221839416131999026750702085685647192654 (0xA6E4B7A9FA38F6D7BC40D55B191B324E)
Complete name : E:\Toloka\2020\Backtrace (2018) 1080p.
Format :
Format version : Version 4
File size : 7.83 GiB
Duration : 1 h 36 min
Overall bit rate : 11.6 Mb/s
Encoded date : UTC 2020-06-30 20:37:07
Writing application : v6.1.0 ('Old Devil') built on Mar 4 2013 09:10:42
Writing library : libebml v1.3.0 + v1.4.0

Video
ID : 1
Format : AVC
Format/Info : Advanced Video Codec
Format profile : [email protected]
Format settings : CABAC / 4 Ref Frames
Format settings, CABAC : Yes
Format settings, Reference : 4 frames
Codec ID : V_MPEG4/ISO/AVC
Duration : 1 h 36 min
Bit rate : 10.8 Mb/s
Width : 1 920 pixels
Height : 1 040 pixels
Display aspect ratio : 1.85:1
Frame rate mode : Constant
Frame rate : 23.976 (24000/1001) FPS
Color space : YUV
Chroma subsampling : 4:2:0
Bit depth : 8 bits
Scan type : Progressive
Bits/(Pixel*Frame) : 0.225
Stream size : 7.29 GiB (93%)
Writing library : core 157 r2969 d4099dd
Encoding settings : cabac=1 / ref=4 / deblock=1:-1:-1 / analyse=0x3:0x133 / me=umh / subme=8 / psy=1 / psy_rd=1.00:0.15 / mixed_ref=1 / me_range=16 / chroma_me=1 / trellis=2 / 8x8dct=1 / cqm=0 / deadzone=21,11 / fast_pskip=0 / chroma_qp_offset=-3 / threads=18 / lookahead_threads=3 / sliced_threads=0 / nr=0 / decimate=1 / interlaced=0 / bluray_compat=0 / constrained_intra=0 / bframes=3 / b_pyramid=2 / b_adapt=1 / b_bias=0 / direct=3 / weightb=1 / open_gop=0 / weightp=2 / keyint=250 / keyint_min=23 / scenecut=40 / intra_refresh=0 / rc_lookahead=40 / rc=crf / mbtree=1 / crf=20.0 / qcomp=0.60 / qpmin=10 / qpmax=69 / qpstep=4 / ip_ratio=1.40 / aq=1:1.00
Default : Yes
Forced : No
Duration_Source : General_Duration

Audio #1
ID : 2
Format : AC-3
Format/Info : Audio Coding 3
Commercial name : Dolby Digital
Codec ID : A_AC3
Duration : 1 h 36 min
Bit rate mode : Constant
Bit rate : 192 kb/s
Channel(s) : 2 channels
Channel layout : L R
Sampling rate : 48.0 kHz
Frame rate : 31.250 FPS (1536 SPF)
Compression mode : Lossy
Stream size : 133 MiB (2%)
Title : UKR (AAASound)
Language : Ukrainian
Service kind : Complete Main
Default : Yes
Forced : Yes
Duration_Source : General_Duration

Audio #2
ID : 3
Format : AC-3
Format/Info : Audio Coding 3
Commercial name : Dolby Digital
Codec ID : A_AC3
Duration : 1 h 36 min
Bit rate mode : Constant
Bit rate : 192 kb/s
Channel(s) : 2 channels
Channel layout : L R
Sampling rate : 48.0 kHz
Frame rate : 31.250 FPS (1536 SPF)
Compression mode : Lossy
Stream size : 133 MiB (2%)
Title : UKR (AMC)
Language : Ukrainian
Service kind : Complete Main
Default : No
Forced : No
Duration_Source : General_Duration

Audio #3
ID : 4
Format : AC-3
Format/Info : Audio Coding 3
Commercial name : Dolby Digital
Codec ID : A_AC3
Duration : 1 h 36 min
Bit rate mode : Constant
Bit rate : 192 kb/s
Channel(s) : 2 channels
Channel layout : L R
Sampling rate : 48.0 kHz
Frame rate : 31.250 FPS (1536 SPF)
Compression mode : Lossy
Stream size : 133 MiB (2%)
Title : ENG
Language : English
Service kind : Complete Main
Default : No
Forced : No
Duration_Source : General_Duration

Menu
00:00:00.000 : de:00:00:00.000
00:01:05.399 : de:00:01:05.399
00:09:39.913 : de:00:09:39.913
00:15:12.537 : de:00:15:12.537
00:20:03.160 : de:00:20:03.160
00:26:19.369 : de:00:26:19.369
00:30:56.646 : de:00:30:56.646
00:36:36.277 : de:00:36:36.277
00:43:25.645 : de:00:43:25.645
00:48:45.047 : de:00:48:45.047
00:54:41.945 : de:00:54:41.945
00:59:38.658 : de:00:59:38.658
01:05:05.652 : de:01:05:05.652
01:11:34.207 : de:01:11:34.207
01:17:04.578 : de:01:17:04.578
01:23:27.211 : de:01:23:27.211
01:32:19.659 : de:01:32:19.659
Скріншоти







За доріжку №1 подяка п. kinaxem
За запис звуку з каналу АМС подяка п. Krigg070
Особиста подяка пану denixx за надану матеріальну допомогу на підтримку цього і майбутніх релізів.
Джерело:


 Трекер:    Зареєстрований   

Завантажити / скачати фільм українською



відео для новачків



 Зареєстрований:   2020-06-30 23:47
 Розмір:   7.83 GB 
 Оцінка фільму:   10/10 (Голосів: 2)
   
Інші релізи
   Гра пам'яті / Backtrace (2018) 2xUkr Arsenfpu  11 / 0   1.46 GB   2020-07-01 07:46 
   Гра пам'яті / Backtrace (2018) AVC Maters  10 / 0   1.32 GB   2019-10-15 18:58 
Ваш часовий пояс: GMT + 2 Години

Нова тема   Відповісти