Відеореєстратор (Нагрудна камера) / Body Cam (2020) 1080p Eng | sub Ukr/Eng

Нові коментарі

Нова тема   Відповісти
Автор Повідомлення
Anonymous 







2020-06-30 14:21  
Відеореєстратор (Нагрудна камера) / Body Cam (2020) 1080p Eng | sub Ukr/Eng



Жанр: жахи, детектив, трилер
Країна: США



Кінокомпанія: BET Films, Paramount Players, Ace Entertainment
Режисер: Малік Віттал / Malik Vitthal
Актори: Мері Джей Блайдж / Mary J. Blige, Нат Вулфф / Nat Wolff, Аніка Ноні Роуз / Anika Noni Rose, Девід Зейес / David Zayas, Девід Воршофскі / David Warshofsky, Ян Касселбері / Ian Casselberry, Філіп Форнах / Philip Fornah, Деметріус Ґросс / Demetrius Grosse, Лара Ґрайс / Lara Grice, Наіма Рамос-Чепмен / Naima Ramos-Chapman та інші

Сюжет:
Стандартне і нудне патрулювання вулиць для поліцейських-напарників обернеться справжнім жахіттям після жорстокого вбивства колеги. Пара копів зіткнуться з невідомою і незрозумілою силою, яка переслідує свою ціль і готова вбивати без зупинки. Розпочнеться смертельно небезпечна гонка з надприродним.
Офіційний трейлер:


Рейтинг MPAA: R - особам до 17 років обов'язкова присутність батьків або дорослого опікуна
Вікова категорія: 16+


Тривалість: 01:36:39
Якість: 1080p
Відео:
кодек:
розмір кадру: 1916х800
бітрейт: 4568 кб/с

Аудіо:
мова: англійська
переклад: оригінал
кодек: 5.1
бітрейт: 384 кб/с

Субтитри # 1:
мова: українська
тип: програмні (м'які)
формат: *.srt
переклад: офіційний, Юрій Лаховський

Субтитри # 2-3:
мова: англійська (повні, SDH)
тип: програмні (м'які)
формат: *.srt

Збережено оригінальні розділи
Info
Код:
Complete name               : Body Cam (2020) [Eng sub.Ukr,Eng] 1080p [Hurtom].
Format                      :
Format version              : Version 4
File size                   : 3.34 GiB
Duration                    : 1 h 36 min
Overall bit rate            : 4 954 kb/s
Movie name                  : Відеореєстратор (Нагрудна камера) / Body Cam (2020) [Eng sub.Ukr,Eng] 1080p [Hurtom]
Encoded date                : UTC 2020-06-30 13:49:40
Writing application         : v48.0.0 ('Fortress Around Your Heart') 64-bit
Writing library             : libebml v1.4.0 + v1.6.0
Cover                       : Yes
Attachments                 : cover.jpg

Video
ID                          : 1
Format                      : AVC
Format/Info                 : Advanced Video Codec
Format profile              : [email protected]
Format settings             : CABAC / 5 Ref Frames
Format settings, CABAC      : Yes
Format settings, Reference  : 5 frames
Codec ID                    : V_MPEG4/ISO/AVC
Duration                    : 1 h 36 min
Bit rate                    : 4 568 kb/s
Width                       : 1 916 pixels
Height                      : 800 pixels
Display aspect ratio        : 2.40:1
Frame rate mode             : Constant
Frame rate                  : 23.976 (23976/1000) FPS
Color space                 : YUV
Chroma subsampling          : 4:2:0
Bit depth                   : 8 bits
Scan type                   : Progressive
Bits/(Pixel*Frame)          : 0.124
Stream size                 : 3.08 GiB (92%)
Title                       : Нагрудна камера (Відеореєстратор) / Body Cam (2020) 1080p [EVO]
Language                    : English
Default                     : Yes
Forced                      : No
Color range                 : Limited
Color primaries             : BT.709
Transfer characteristics    : BT.709
Matrix coefficients         : BT.709

Audio
ID                          : 2
Format                      : AC-3
Format/Info                 : Audio Coding 3
Commercial name             : Dolby Digital
Codec ID                    : A_AC3
Duration                    : 1 h 36 min
Bit rate mode               : Constant
Bit rate                    : 384 kb/s
Channel(s)                  : 6 channels
Channel layout              : L R C LFE Ls Rs
Sampling rate               : 48.0 kHz
Frame rate                  : 31.250 FPS (1536 SPF)
Compression mode            : Lossy
Delay relative to video     : -42 ms
Stream size                 : 265 MiB (8%)
Language                    : English
Service kind                : Complete Main
Default                     : Yes
Forced                      : No

Text #1
ID                          : 3
Format                      : UTF-8
Codec ID                    : S_TEXT/UTF8
Codec ID/Info               : UTF-8 Plain Text
Duration                    : 1 h 36 min
Bit rate                    : 60 b/s
Count of elements           : 710
Stream size                 : 42.9 KiB (0%)
Title                       : Ukr Full [Official]
Language                    : Ukrainian
Default                     : Yes
Forced                      : Yes

Text #2
ID                          : 4
Format                      : UTF-8
Codec ID                    : S_TEXT/UTF8
Codec ID/Info               : UTF-8 Plain Text
Duration                    : 1 h 29 min
Bit rate                    : 40 b/s
Count of elements           : 828
Stream size                 : 27.0 KiB (0%)
Title                       : Eng Full
Language                    : English
Default                     : No
Forced                      : No

Text #3
ID                          : 5
Format                      : UTF-8
Codec ID                    : S_TEXT/UTF8
Codec ID/Info               : UTF-8 Plain Text
Duration                    : 1 h 29 min
Bit rate                    : 47 b/s
Count of elements           : 992
Stream size                 : 31.2 KiB (0%)
Title                       : Eng SDH
Language                    : English
Default                     : No
Forced                      : No

Menu
00:00:00.000                : en:1
00:07:54.057                : en:2
00:13:20.466                : en:3
00:21:47.472                : en:4
00:29:31.394                : en:5
00:36:30.145                : en:6
00:43:18.261                : en:7
00:50:36.824                : en:8
00:57:41.999                : en:9
01:04:23.357                : en:10
01:13:07.380                : en:11
01:20:50.216                : en:12
01:30:02.058                : en:13



Джерело: &
Подяка за надані субтитри п. sub.Trader (subscene).


 Трекер:    Зареєстрований   

Завантажити / скачати фільм українською



відео для новачків



 Зареєстрований:   2020-06-30 16:58
 Розмір:   3.34 GB 
 Оцінка фільму:   7/10 (Голосів: 3)
 ЗАЛИШАЙТЕСЬ ЯКОМОГА ДОВШЕ НА РОЗДАЧІ! ЗАВАНТАЖИВ САМ - ДАЙ ЗАВАНТАЖИТИ ІНШИМ!
   
tpolit 
VIP


З нами з: 10.01.15
Востаннє: 03.07.20
Повідомлень: 584

2020-07-02 00:22  
Мені фільм сподобався, десь на 8 з 10, хоча й закінчення трохи підпорчене - занадто просте, наївне і дитяче.
Ваш часовий пояс: GMT + 2 Години

Нова тема   Відповісти