Хто ви, містере Брукс? / Mr. Brooks (2007) 1080p H.265 Ukr/Eng | Sub Eng

Нові коментарі

Нова тема   Відповісти
Автор Повідомлення
Anonymous 







2020-06-30 12:40  
Хто ви, містере Брукс? / Mr. Brooks (2007) 1080p H.265 Ukr/Eng | Sub Eng

Хто ви, містере Брукс? / Mr. Brooks (2007) 1080p H.265 Ukr/Eng | Sub Eng


Жанр: трилер, драма, кримінальний, детектив
Країна: США
Кінокомпанія: Metro-Goldwyn-Mayer (MGM), Eden Rock Media, Element Films
Режисер: Брюс А. Еванс
Актори: Кевін Костнер, Демі Мур, Дейн Кук, Вільям Херт, Марж Хелгенбергер, Рубен Сантьяго-Хадсон, Даніель Панабейкер, Аїша Хіндс, Ліндсей Круз, Джейсон Люїс

Сюжет:
Шанований бізнесмен і батько сімейства, містер Брукс приховує таємницю. За фасадом дбайливого чоловіка і ніжного батька ховається жорстокий вбивця. Протягом довгого часу ці дві особистості безуспішно борються між собою, і жодна з них не може узяти гору. У результаті вбивства тривають, і, здається, ніщо не може обірвати цей кривавий ланцюг злочинів.

Однак Бруксу не пощастило. Свідком його останнього злодіяння стає божевільний фотограф. Він починає шантажувати злочинця, але в нього особливі вимоги. На відміну від звичайних шантажистів, фотографа не цікавлять гроші. Він хоче бути присутнім при наступних вбивствах.

У героя залишається сумнівний вибір - піти на поводі у шантажиста або знайти в собі сили перемогти свій порок і повернутися до нормального життя.

Тривалість: 02:00:43
Якість:

Відео:
кодек: H.265 (HEVC)
розмір кадру: 1920 x 1040
бітрейт: 7 843 кб/с
бітова глибина: 10 біт

Увага! Перед завантаженням переконайтесь, що ваш пристрій відтворення (та/або ПЗ) підтримує H.265 (HEVC)

Аудіо # 1:
мова: українська
переклад: багатоголосий закадровий
кодек: AC-3 5.1
бітрейт: 448 кб/с

Аудіо # 2:
мова: англійська
переклад: оригінал
кодек: AC-3 5.1
бітрейт: 640 кб/с

Субтитри # 1: (Full)
мова: англійська
тип: програмні (м'які)
формат: *.srt


Info
Код:
General
Unique ID                                : 163512947931535328714918408718664660146 (0x7B0372C1EE16B6744ABC25492388F4B2)
Complete name                            : Mr. Brooks (2007) 1080p H.265 [UKR_ENG] [Hurtom].
Format                                   :
Format version                           : Version 4
File size                                : 7.53 GiB
Duration                                 : 2 h 0 min
Overall bit rate                         : 8 933 kb/s
Movie name                               : Хто ви, містере Брукс? / Mr. Brooks (2007)
Encoded date                             : UTC 2020-06-30 09:31:29
Writing application                      : v20.0.0 ('I Am The Sun') 64-bit
Writing library                          : libebml v1.3.5 + v1.4.8
Cover                                    : Yes
Attachments                              : Cover.jpg

Video
ID                                       : 1
Format                                   : HEVC
Format/Info                              : High Efficiency Video Coding
Format profile                           : Main [email protected]@High
Codec ID                                 : V_MPEGH/ISO/HEVC
Duration                                 : 2 h 0 min
Bit rate                                 : 7 843 kb/s
Width                                    : 1 920 pixels
Height                                   : 1 040 pixels
Display aspect ratio                     : 1.85:1
Frame rate mode                          : Constant
Frame rate                               : 23.976 (23976/1000) FPS
Original frame rate                      : 23.976 (24000/1001) FPS
Color space                              : YUV
Chroma subsampling                       : 4:2:0
Bit depth                                : 10 bits
Bits/(Pixel*Frame)                       : 0.164
Stream size                              : 6.61 GiB (88%)
Title                                    : Хто ви, містере Брукс? / Mr. Brooks (2007)
Writing library                          : x265 3.3+4-g85d84b2af:[Windows][GCC 10.1.0][64 bit] 10bit
Encoding settings                        : cpuid=1111039 / frame-threads=4 / numa-pools=16 / wpp / no-pmode / no-pme / no-psnr / no-ssim / log-level=2 / input-csp=1 / input-res=1920x1040 / interlace=0 / total-frames=173663 / level-idc=41 / high-tier=1 / uhd-bd=0 / ref=5 / no-allow-non-conformance / no-repeat-headers / annexb / no-aud / no-hrd / info / hash=0 / no-temporal-layers / open-gop / min-keyint=23 / keyint=240 / gop-lookahead=0 / bframes=9 / b-adapt=2 / b-pyramid / bframe-bias=0 / rc-lookahead=60 / lookahead-slices=1 / scenecut=40 / hist-scenecut=0 / radl=0 / no-splice / no-intra-refresh / ctu=32 / min-cu-size=8 / rect / amp / max-tu-size=32 / tu-inter-depth=4 / tu-intra-depth=4 / limit-tu=1 / rdoq-level=1 / dynamic-rd=0.00 / no-ssim-rd / signhide / no-tskip / nr-intra=0 / nr-inter=0 / no-constrained-intra / no-strong-intra-smoothing / max-merge=5 / limit-refs=0 / no-limit-modes / me=3 / subme=7 / merange=57 / temporal-mvp / no-frame-dup / no-hme / weightp / weightb / no-analyze-src-pics / deblock=-2:-2 / no-sao / no-sao-non-deblock / rd=6 / selective-sao=0 / no-early-skip / no-rskip / no-fast-intra / no-tskip-fast / no-cu-lossless / b-intra / no-splitrd-skip / rdpenalty=0 / psy-rd=2.00 / psy-rdoq=1.00 / no-rd-refine / no-lossless / cbqpoffs=0 / crqpoffs=0 / rc=crf / crf=20.6 / qcomp=0.70 / qpstep=4 / stats-write=0 / stats-read=0 / vbv-maxrate=50000 / vbv-bufsize=50000 / vbv-init=0.9 / crf-max=0.0 / crf-min=0.0 / ipratio=1.40 / pbratio=1.30 / aq-mode=2 / aq-strength=1.00 / no-cutree / zone-count=0 / no-strict-cbr / qg-size=32 / no-rc-grain / qpmax=69 / qpmin=0 / no-const-vbv / sar=1 / overscan=0 / videoformat=5 / range=0 / colorprim=1 / transfer=1 / colormatrix=1 / chromaloc=0 / display-window=0 / cll=0,0 / min-luma=0 / max-luma=1023 / log2-max-poc-lsb=8 / vui-timing-info / vui-hrd-info / slices=1 / no-opt-qp-pps / no-opt-ref-list-length-pps / no-multi-pass-opt-rps / scenecut-bias=0.05 / hist-threshold=0.01 / no-opt-cu-delta-qp / no-aq-motion / no-hdr10 / no-hdr10-opt / no-dhdr10-opt / no-idr-recovery-sei / analysis-reuse-level=0 / analysis-save-reuse-level=0 / analysis-load-reuse-level=0 / scale-factor=0 / refine-intra=0 / refine-inter=0 / refine-mv=0 / refine-ctu-distortion=0 / no-limit-sao / ctu-info=0 / no-lowpass-dct / refine-analysis-type=0 / copy-pic=1 / max-ausize-factor=1.0 / no-dynamic-refine / no-single-sei / no-hevc-aq / no-svt / no-field / qp-adaptation-range=1.00 / no-scenecut-aware-qpconformance-window-offsets / right=0 / bottom=0
Language                                 : English
Default                                  : Yes
Forced                                   : No
Color range                              : Limited
Color primaries                          : BT.709
Transfer characteristics                 : BT.709
Matrix coefficients                      : BT.709

Audio #1
ID                                       : 2
Format                                   : AC-3
Format/Info                              : Audio Coding 3
Commercial name                          : Dolby Digital
Codec ID                                 : A_AC3
Duration                                 : 2 h 0 min
Bit rate mode                            : Constant
Bit rate                                 : 448 kb/s
Channel(s)                               : 6 channels
Channel layout                           : L R C LFE Ls Rs
Sampling rate                            : 48.0 kHz
Frame rate                               : 31.250 FPS (1536 SPF)
Compression mode                         : Lossy
Stream size                              : 387 MiB (5%)
Title                                    : / 5.1 Ch / 448 kbps / БЗ / NTN
Language                                 : Ukrainian
Service kind                             : Complete Main
Default                                  : Yes
Forced                                   : Yes

Audio #2
ID                                       : 3
Format                                   : AC-3
Format/Info                              : Audio Coding 3
Commercial name                          : Dolby Digital
Codec ID                                 : A_AC3
Duration                                 : 2 h 0 min
Bit rate mode                            : Constant
Bit rate                                 : 640 kb/s
Channel(s)                               : 6 channels
Channel layout                           : L R C LFE Ls Rs
Sampling rate                            : 48.0 kHz
Frame rate                               : 31.250 FPS (1536 SPF)
Compression mode                         : Lossy
Stream size                              : 553 MiB (7%)
Title                                    : / 5.1 Ch / 640 kbps / Original
Language                                 : English
Service kind                             : Complete Main
Default                                  : No
Forced                                   : No

Text
ID                                       : 4
Format                                   : UTF-8
Codec ID                                 : S_TEXT/UTF8
Codec ID/Info                            : UTF-8 Plain Text
Duration                                 : 1 h 53 min
Bit rate                                 : 57 b/s
Count of elements                        : 1294
Stream size                              : 48.0 KiB (0%)
Title                                    : Full
Language                                 : English
Default                                  : No
Forced                                   : No

Menu
00:00:00.000                             : en:Main Titles/Man of the Year
00:02:57.135                             : en:Pretty Please
00:05:05.096                             : en:Just Looking
00:05:56.272                             : en:Why Fight It?
00:07:24.152                             : en:So Much Fun
00:08:48.528                             : en:Ecstacy
00:12:08.602                             : en:Follow the Rules
00:14:08.806                             : en:Thumbprint Killer
00:16:41.792                             : en:I'm an Addict
00:17:58.660                             : en:Indulgent Father
00:23:20.649                             : en:Mr. Smith
00:28:11.523                             : en:Ugly Divorce
00:31:51.242                             : en:Earl's Two Sides
00:34:55.468                             : en:Jane's News
00:37:55.147                             : en:Unobstructed View
00:41:13.137                             : en:The Apprentice
00:50:10.298                             : en:Background Check
00:53:14.649                             : en:Abduction
00:56:19.834                             : en:Life's Surprises
00:59:07.418                             : en:Nothing Personal
01:03:25.718                             : en:Campus Murder
01:11:44.550                             : en:Difficult Decision
01:15:21.058                             : en:Playing a Hunch
01:21:24.754                             : en:Sadistic Killing
01:26:39.485                             : en:In the Clear
01:30:17.662                             : en:Murder 101
01:35:37.314                             : en:Into Thin Air
01:38:29.278                             : en:Make Me Disappear
01:41:35.297                             : en:The Hangman
01:44:39.940                             : en:Cemetary Plot
01:48:03.268                             : en:Vicious Traditions
01:54:25.275                             : en:End Titles
Світлини




Джерело: &
Особиста оцінка: 0 - не дивився


 Трекер:    Зареєстрований   

Завантажити / скачати фільм українською



відео для новачків



 Зареєстрований:   2020-06-30 12:40
 Розмір:   7.53 GB 
 Оцінка фільму:   6.8/10 (Голосів: 4)
   
Ваш часовий пояс: GMT + 2 Години

Нова тема   Відповісти