Фантастична подорож (Сезон 1) / The Fantastic Journey (Season 1) (1977) -AVC Ukr/Eng | sub Eng

Нові коментарі

Нова тема   Відповісти
Автор Повідомлення
urij546724 
Відео Гуртом - фільмокрай
Відео Гуртом - фільмокрай


З нами з: 16.03.10
Востаннє: 24.09.20
Повідомлень: 5701

2020-06-30 12:37  
Фантастична подорож (Сезон 1) / The Fantastic Journey (Season 1) (1977) -AVC Ukr/Eng | sub Eng



Жанр: фантастика, пригодницький
Країна: США



Кіностудія / кінокомпанія: Bruce Lansbury Productions, Columbia Pictures Television
Режисер: Вінсент Макветі (Vincent McEveety), Баррі Крейн (Barry Crane)...
Актори: Джаред Мартін (Jared Martin), Карл Франклін (Carl Franklin), Айк Айзенман (Ike Eisenmann), Кеті Сейлор (Katie Saylor), Родді Макдауолл (Roddy McDowall), Майк Роуд (Mike Road), Лінн Борден (Lynn Borden)...

Сюжет:
Наукова експедиція, що працює в Атлантичному океані, зникає в Бермудському трикутнику і потрапляє на острів, якого немає на картах. Там вони зустрічають мандрівників з інших планет, часів і вимірів, що потрапили в ту ж пастку. І тепер вони разом переносяться через портали з одного виміру в інший в надії знайти портал, який веде додому.
Перелік серій:
1) Vortex
2) Atlantium
3) Beyond the Mountain
4) Children of the Gods
5) A Dream of Conquest
6) An Act of Love
7) Funhouse
8) Turnabout
9) Riddles
10) The Innocent Prey
Тривалість: 1-а серія 01:13:27; решта серій ~ 00:48:00
Якість: -AVC
Відео:
кодек:
розмір кадру: 720 х 540
бітрейт: ~1905-2212 кб/с
частота кадрів: 23.976 к/с (fps)

Аудіо #1:
мова: українська
переклад: багатоголосий закадровий
кодек: 2.0
бітрейт: 192 кб/с
озвучено: Так Треба Продакшн на замовлення Інтер
примітка: у серії 6 відсутнє озвучення на відрізку 26:08 - 27:47, а у 10 серії на відрізку 15:03 - 48:04

Аудіо #2:
мова: англійська
переклад: оригінал
кодек: 2.0
бітрейт: 224 кб/с

Субтитри:
мова: українська
тип: програмні (м'які)
формат: *.srt
примітка: на місця без озвучки

Субтитри:
мова: англійська
тип: програмні (м'які)
формат: *.srt
примітка: окрім серії 5
Media info:
General
Unique ID : 323594101932527652695821847288511745626 (0xF371F502CB7719AA7D19E629EA584E5A)
Format :
Format version : Version 4
File size : 812 MiB
Duration : 48 min 49 s
Overall bit rate : 2 324 kb/s
Movie name : The Fantastic Journey_s01e10_-_The Innocent Prey [ukr,eng_sub ukr,eng] -AVC [Hurtom] by urij546724
Encoded date : UTC 2020-06-26 17:29:11
Writing application : v47.0.0 ('Black Flag') 64-bit
Writing library : libebml v1.3.10 + v1.5.2
Attachments : The Fantastic Journey (1977) [Season 1] [ukr.TTPforInter_eng_sub eng] -AVC [Hurtom] by urij546724.jpg / 10..encoding.log

Video
ID : 1
Format : AVC
Format/Info : Advanced Video Codec
Format profile : [email protected]
Format settings : CABAC / 8 Ref Frames
Format settings, CABAC : Yes
Format settings, Reference : 8 frames
Codec ID : V_MPEG4/ISO/AVC
Duration : 48 min 49 s
Bit rate : 1 905 kb/s
Width : 720 pixels
Height : 540 pixels
Display aspect ratio : 4:3
Frame rate mode : Constant
Frame rate : 23.976 (24000/1001) FPS
Color space : YUV
Chroma subsampling : 4:2:0
Bit depth : 8 bits
Scan type : Progressive
Bits/(Pixel*Frame) : 0.204
Stream size : 665 MiB (82%)
Title : The Fantastic Journey_s01e10_-_The Innocent Prey -AVC [Hurtom] by urij546724
Writing library : core 130 r2273 b3065e6
Encoding settings : cabac=1 / ref=8 / deblock=1:-3:-3 / analyse=0x3:0x131 / me=umh / subme=11 / psy=1 / psy_rd=0.99:0.14 / mixed_ref=1 / me_range=24 / chroma_me=1 / trellis=2 / 8x8dct=1 / cqm=0 / deadzone=21,11 / fast_pskip=1 / chroma_qp_offset=-3 / threads=6 / lookahead_threads=1 / sliced_threads=0 / nr=0 / decimate=1 / interlaced=0 / bluray_compat=0 / constrained_intra=0 / bframes=8 / b_pyramid=2 / b_adapt=2 / b_bias=0 / direct=3 / weightb=1 / open_gop=0 / weightp=2 / keyint=210 / keyint_min=21 / scenecut=40 / intra_refresh=0 / rc_lookahead=80 / rc=2pass / mbtree=1 / bitrate=1905 / ratetol=1.0 / qcomp=0.65 / qpmin=0 / qpmax=69 / qpstep=4 / cplxblur=20.0 / qblur=0.5 / ip_ratio=1.25 / aq=1:0.90
Language : English
Default : Yes
Forced : No
Color range : Limited
Color primaries : BT.601 NTSC
Transfer characteristics : BT.601
Matrix coefficients : BT.601

Audio #1
ID : 2
Format : AC-3
Format/Info : Audio Coding 3
Commercial name : Dolby Digital
Codec ID : A_AC3
Duration : 48 min 48 s
Bit rate mode : Constant
Bit rate : 192 kb/s
Channel(s) : 2 channels
Channel layout : L R
Sampling rate : 48.0 kHz
Frame rate : 31.250 FPS (1536 SPF)
Compression mode : Lossy
Stream size : 67.0 MiB (8%)
Title : Українська доріжка
Language : Ukrainian
Service kind : Complete Main
Default : Yes
Forced : Yes

Audio #2
ID : 3
Format : AC-3
Format/Info : Audio Coding 3
Commercial name : Dolby Digital
Codec ID : A_AC3
Duration : 48 min 48 s
Bit rate mode : Constant
Bit rate : 224 kb/s
Channel(s) : 2 channels
Channel layout : L R
Sampling rate : 48.0 kHz
Frame rate : 31.250 FPS (1536 SPF)
Compression mode : Lossy
Stream size : 78.2 MiB (10%)
Title : Оригінальна доріжка
Language : English
Service kind : Complete Main
Default : No
Forced : No

Text #1
ID : 4
Format : UTF-8
Codec ID : S_TEXT/UTF8
Codec ID/Info : UTF-8 Plain Text
Duration : 47 min 28 s
Bit rate : 105 b/s
Count of elements : 585
Stream size : 36.8 KiB (0%)
Title : Українські субтитри
Language : Ukrainian
Default : Yes
Forced : Yes

Text #2
ID : 5
Format : UTF-8
Codec ID : S_TEXT/UTF8
Codec ID/Info : UTF-8 Plain Text
Duration : 47 min 25 s
Bit rate : 64 b/s
Count of elements : 715
Stream size : 22.4 KiB (0%)
Title : Англійські субтитри
Language : English
Default : No
Forced : No

Menu
00:01:35.095 : en:00:01:35.095
00:13:25.305 : en:00:13:25.305
00:25:49.047 : en:00:25:49.047
00:36:57.715 : en:00:36:57.715
00:48:16.394 : en:00:48:16.394
00:48:48.926 : en:00:48:48.926
00:48:49.927 : en:00:48:49.927
Скріншоти:










Трейлер:

Семпл:
Джерело 1_________Джерело 2_________Джерело 3_________Джерело 4_________Джерело 5
У випадку, якщо з усіх джерел семпл видалять, прохання повідомити мені у ПРИВАТ


Подяка:

1. Пану Hulk1987 за запис звуку з ТБ.
2. Усім хто допомагав у створенні релізу.


Реліз створено:


Срібний реліз (на рейтинг впливає 50% завантаженого)
 Трекер:    Зареєстрований   

Завантажити / скачати серіал українською



відео для новачків



 Зареєстрований:   2020-06-30 12:37
 Розмір:   8.48 GB 
 Оцінка серіалу:   8.4/10 (Голосів: 5)
 Прохання не тікати з роздачі і залишати коментарі.
   
Ваш часовий пояс: GMT + 2 Години

Нова тема   Відповісти