Хрещений батько: Трилогія / The Godfather: Trilogy. The Coppola Restoration (1972/1974/1990) 1080p H.265 2xUkr/Eng | Sub Ukr/Eng

Нові коментарі

Нова тема   Відповісти
Автор Повідомлення
Anonymous 







2020-06-30 11:51  
Хрещений батько: Трилогія / The Godfather: Trilogy. The Coppola Restoration (1972/1974/1990) 1080p H.265 2xUkr/Eng | Sub Ukr/Eng

Хрещений батько: Трилогія / The Godfather: Trilogy. The Coppola Restoration (1972/1974/1990) 1080p H.265 2xUkr/Eng | Sub Ukr/Eng

1. 2. 3.

1. Хрещений батько / The Godfather (1972) 1080p H.265 2xUkr/Eng | Sub Ukr/Eng
Хрещений батько / The Godfather (1972) 1080p H.265 2xUkr/Eng | Sub Ukr/Eng

Хрещений батько: Трилогія / The Godfather: Trilogy. The Coppola Restoration (1972/1974/1990) 1080p H.265 2xUkr/Eng | Sub Ukr/Eng


Жанр: кримінальний, драма
Країна: США
Кінокомпанія: Paramount Pictures, Alfran Productions
Режисер: Френсіс Форд Коппола / Francis Ford Coppola
Актори: Марлон Брандо / Marlon Brando, Аль Пачіно / Al Pacino, Джеймс Каан / James Caan, Річард С. Кастелліано / Richard S. Castellano, Роберт Дювалл / Robert Duvall, Стерлінґ Гайден / Sterling Hayden, Джон Марлі / John Marley, Річард Конте / Richard Conte, Аль Леттіері / Al Lettieri, Даян Кітон / Diane Keaton, Абе Віґода / Abe Vigoda, Талія Шайр / Talia Shire, Джіанні Руссо / Gianni Russo, Джон Казал / John Cazale, Руді Бонд / Rudy Bond

Сюжет:
В своєму роді культова екранізація такої ж відомої книги Маріо П'юзо про становлення італійської мафії "Коза ностра" в США в часи між першою та другою світовими війнами. В центрі історії - родина одного з головних кримінальних босів Америки Віто Корлеоне, якому доводиться не лише боротись з урядом і його каральною системою та захищати своїх людей і бізнес від конкурентів, а й вирішувати проблеми всередині власної родини, які постійно створюють його три абсолютно різні сини: запальний Сонні, нерішучий Фредо та холоднокровний і впертий Майкл.

Тривалість: 02:57:09
Якість:

Відео:
кодек: H.265 (HEVC)
розмір кадру: 1920 x 1080
бітрейт: 10 326 кб/с
бітова глибина: 10 біт

Увага! Перед завантаженням переконайтесь, що ваш пристрій відтворення (та/або ПЗ) підтримує H.265 (HEVC)

Аудіо # 1:
мова: українська
переклад: двоголосий закадровий
кодек: AC-3 2.0
бітрейт: 192 кб/с

Аудіо # 2:
мова: українська
переклад: багатоголосий закадровий
кодек: AC-3 2.0
бітрейт: 192 кб/с

Аудіо # 3:
мова: англійська
переклад: оригінал
кодек: 5.1
бітрейт: 1510 кб/с

Аудіо # 4:
мова: англійська
переклад: оригінал | Commentary by Francis Ford Coppola
кодек: AC-3 2.0
бітрейт: 192 кб/с

Субтитри # 1: (Full from Netflix)
мова: українська
тип: програмні (м'які)
формат: *.srt

Субтитри # 2-5: (Forced, Full, SDH, Commentary by Francis Ford Coppola)
мова: англійська
тип: програмні (м'які)
формат: *.srt


Info
Код:
General
Unique ID                                : 178726056720694746295491856987887539794 (0x867562EE42A372EAA803632CABD09652)
Complete name                            : 1. The Godfather (1972) 1080p H.265 [2xUKR_ENG] [Hurtom].
Format                                   :
Format version                           : Version 4
File size                                : 15.4 GiB
Duration                                 : 2 h 57 min
Overall bit rate                         : 12.4 Mb/s
Movie name                               : Хрещений батько / The Godfather (1972)
Encoded date                             : UTC 2020-06-26 11:26:12
Writing application                      : v20.0.0 ('I Am The Sun') 64-bit
Writing library                          : libebml v1.3.5 + v1.4.8
Cover                                    : Yes
Attachments                              : Cover.jpg

Video
ID                                       : 1
Format                                   : HEVC
Format/Info                              : High Efficiency Video Coding
Format profile                           : Main [email protected]@High
Codec ID                                 : V_MPEGH/ISO/HEVC
Duration                                 : 2 h 57 min
Bit rate                                 : 10.3 Mb/s
Width                                    : 1 920 pixels
Height                                   : 1 080 pixels
Display aspect ratio                     : 16:9
Frame rate mode                          : Constant
Frame rate                               : 23.976 (24000/1001) FPS
Color space                              : YUV
Chroma subsampling                       : 4:2:0
Bit depth                                : 10 bits
Bits/(Pixel*Frame)                       : 0.208
Stream size                              : 12.8 GiB (83%)
Title                                    : Хрещений батько / The Godfather (1972)
Writing library                          : x265 3.3+2-gbe2d82093:[Windows][GCC 10.0.1][64 bit] 10bit
Encoding settings                        : cpuid=1111039 / frame-threads=4 / numa-pools=16 / wpp / no-pmode / no-pme / no-psnr / no-ssim / log-level=2 / input-csp=1 / input-res=1920x1080 / interlace=0 / total-frames=254844 / level-idc=41 / high-tier=1 / uhd-bd=0 / ref=5 / no-allow-non-conformance / no-repeat-headers / annexb / no-aud / no-hrd / info / hash=0 / no-temporal-layers / open-gop / min-keyint=24 / keyint=240 / gop-lookahead=0 / bframes=10 / b-adapt=2 / b-pyramid / bframe-bias=0 / rc-lookahead=60 / lookahead-slices=1 / scenecut=40 / hist-scenecut=0 / radl=0 / no-splice / no-intra-refresh / ctu=32 / min-cu-size=8 / rect / amp / max-tu-size=32 / tu-inter-depth=4 / tu-intra-depth=4 / limit-tu=1 / rdoq-level=2 / dynamic-rd=0.00 / no-ssim-rd / signhide / no-tskip / nr-intra=0 / nr-inter=0 / no-constrained-intra / no-strong-intra-smoothing / max-merge=5 / limit-refs=3 / limit-modes / me=3 / subme=7 / merange=57 / temporal-mvp / no-frame-dup / hme / Level / merange / L0,L1,L2=16,32,57 / weightp / weightb / no-analyze-src-pics / deblock=-3:-3 / no-sao / no-sao-non-deblock / rd=6 / selective-sao=0 / no-early-skip / rskip / rskip-edge-threshold=0.050000 / no-fast-intra / no-tskip-fast / no-cu-lossless / b-intra / no-splitrd-skip / rdpenalty=0 / psy-rd=1.70 / psy-rdoq=0.60 / no-rd-refine / no-lossless / cbqpoffs=0 / crqpoffs=0 / rc=crf / crf=20.0 / qcomp=0.63 / qpstep=4 / stats-write=0 / stats-read=0 / vbv-maxrate=50000 / vbv-bufsize=50000 / vbv-init=0.9 / crf-max=0.0 / crf-min=0.0 / ipratio=1.40 / pbratio=1.30 / aq-mode=1 / aq-strength=1.00 / no-cutree / zone-count=0 / no-strict-cbr / qg-size=32 / no-rc-grain / qpmax=69 / qpmin=0 / no-const-vbv / sar=1 / overscan=0 / videoformat=5 / range=0 / colorprim=1 / transfer=1 / colormatrix=1 / chromaloc=0 / display-window=0 / cll=0,0 / min-luma=0 / max-luma=1023 / log2-max-poc-lsb=8 / vui-timing-info / vui-hrd-info / slices=1 / no-opt-qp-pps / no-opt-ref-list-length-pps / no-multi-pass-opt-rps / scenecut-bias=0.05 / hist-threshold=0.01 / no-opt-cu-delta-qp / no-aq-motion / no-hdr10 / no-hdr10-opt / no-dhdr10-opt / no-idr-recovery-sei / analysis-reuse-level=0 / analysis-save-reuse-level=0 / analysis-load-reuse-level=0 / scale-factor=0 / refine-intra=0 / refine-inter=0 / refine-mv=1 / refine-ctu-distortion=0 / no-limit-sao / ctu-info=0 / no-lowpass-dct / refine-analysis-type=0 / copy-pic=1 / max-ausize-factor=1.0 / no-dynamic-refine / no-single-sei / no-hevc-aq / no-svt / no-field / qp-adaptation-range=1.00 / no-scenecut-aware-qpconformance-window-offsets / right=0 / bottom=0
Language                                 : English
Default                                  : Yes
Forced                                   : No
Color range                              : Limited
Color primaries                          : BT.709
Transfer characteristics                 : BT.709
Matrix coefficients                      : BT.709

Audio #1
ID                                       : 2
Format                                   : AC-3
Format/Info                              : Audio Coding 3
Commercial name                          : Dolby Digital
Codec ID                                 : A_AC3
Duration                                 : 2 h 57 min
Bit rate mode                            : Constant
Bit rate                                 : 192 kb/s
Channel(s)                               : 2 channels
Channel layout                           : L R
Sampling rate                            : 48.0 kHz
Frame rate                               : 31.250 FPS (1536 SPF)
Compression mode                         : Lossy
Stream size                              : 243 MiB (2%)
Title                                    : / 2.0 Ch / 192 kbps / ДЗ / 1+1
Language                                 : Ukrainian
Service kind                             : Complete Main
Default                                  : Yes
Forced                                   : Yes

Audio #2
ID                                       : 3
Format                                   : AC-3
Format/Info                              : Audio Coding 3
Commercial name                          : Dolby Digital
Codec ID                                 : A_AC3
Duration                                 : 2 h 57 min
Bit rate mode                            : Constant
Bit rate                                 : 192 kb/s
Channel(s)                               : 2 channels
Channel layout                           : L R
Sampling rate                            : 48.0 kHz
Frame rate                               : 31.250 FPS (1536 SPF)
Compression mode                         : Lossy
Stream size                              : 243 MiB (2%)
Title                                    : / 2.0 Ch / 192 kbps / БЗ / Inter / ТакТребаПродакшн
Language                                 : Ukrainian
Service kind                             : Complete Main
Default                                  : No
Forced                                   : No

Audio #3
ID                                       : 4
Format                                   :
Format/Info                              : Digital Theater Systems
Codec ID                                 : A_DTS
Duration                                 : 2 h 57 min
Bit rate mode                            : Constant
Bit rate                                 : 1 509 kb/s
Channel(s)                               : 6 channels
Channel layout                           : C L R Ls Rs LFE
Sampling rate                            : 48.0 kHz
Frame rate                               : 93.750 FPS (512 SPF)
Bit depth                                : 16 bits
Compression mode                         : Lossy
Stream size                              : 1.87 GiB (12%)
Title                                    : / 5.1 Ch / 1509 kbps / Original
Language                                 : English
Default                                  : No
Forced                                   : No

Audio #4
ID                                       : 5
Format                                   : AC-3
Format/Info                              : Audio Coding 3
Commercial name                          : Dolby Digital
Codec ID                                 : A_AC3
Duration                                 : 2 h 57 min
Bit rate mode                            : Constant
Bit rate                                 : 192 kb/s
Channel(s)                               : 2 channels
Channel layout                           : L R
Sampling rate                            : 48.0 kHz
Frame rate                               : 31.250 FPS (1536 SPF)
Compression mode                         : Lossy
Stream size                              : 243 MiB (2%)
Title                                    : / 2.0 Ch / 192 kbps / Original / Commentary by Francis Ford Coppola
Language                                 : English
Service kind                             : Complete Main
Default                                  : No
Forced                                   : No

Text #1
ID                                       : 6
Format                                   : UTF-8
Codec ID                                 : S_TEXT/UTF8
Codec ID/Info                            : UTF-8 Plain Text
Duration                                 : 2 h 55 min
Bit rate                                 : 71 b/s
Count of elements                        : 1326
Stream size                              : 91.5 KiB (0%)
Title                                    : Full from Netflix
Language                                 : Ukrainian
Default                                  : Yes
Forced                                   : No

Text #2
ID                                       : 7
Format                                   : UTF-8
Codec ID                                 : S_TEXT/UTF8
Codec ID/Info                            : UTF-8 Plain Text
Duration                                 : 1 h 23 min
Bit rate                                 : 3 b/s
Count of elements                        : 74
Stream size                              : 2.04 KiB (0%)
Title                                    : Forced
Language                                 : English
Default                                  : No
Forced                                   : No

Text #3
ID                                       : 8
Format                                   : UTF-8
Codec ID                                 : S_TEXT/UTF8
Codec ID/Info                            : UTF-8 Plain Text
Duration                                 : 2 h 51 min
Bit rate                                 : 42 b/s
Count of elements                        : 1308
Stream size                              : 53.5 KiB (0%)
Title                                    : Full
Language                                 : English
Default                                  : No
Forced                                   : No

Text #4
ID                                       : 9
Format                                   : UTF-8
Codec ID                                 : S_TEXT/UTF8
Codec ID/Info                            : UTF-8 Plain Text
Duration                                 : 2 h 51 min
Bit rate                                 : 45 b/s
Count of elements                        : 1483
Stream size                              : 56.8 KiB (0%)
Title                                    : SDH
Language                                 : English
Default                                  : No
Forced                                   : No

Text #5
ID                                       : 10
Format                                   : UTF-8
Codec ID                                 : S_TEXT/UTF8
Codec ID/Info                            : UTF-8 Plain Text
Duration                                 : 2 h 52 min
Bit rate                                 : 80 b/s
Count of elements                        : 2055
Stream size                              : 101 KiB (0%)
Title                                    : Commentary by Francis Ford Coppola
Language                                 : English
Default                                  : No
Forced                                   : No

Menu
00:00:00.000                             : en:Main Titles
00:04:28.477                             : en:Flik's Invention
00:07:51.971                             : en:Red Alert
00:09:51.966                             : en:The Grasshoppers Arrive
00:15:18.626                             : en:On Trial
00:17:19.163                             : en:Leaving Ant Island
00:18:55.760                             : en:Flik's Flight
00:20:04.495                             : en:P. T. Flea's Circus
00:26:07.941                             : en:The City
00:27:48.917                             : en:Bug Bar
00:31:29.137                             : en:Flying Home
00:32:43.003                             : en:The Warriors Arrive
00:35:57.363                             : en:Official Welcome
00:39:42.213                             : en:"Squish Me Now"
00:41:26.609                             : en:A Bird Attacks
00:45:08.372                             : en:Francis the Hero
00:45:49.622                             : en:Atta's Apology
00:47:16.667                             : en:Flik's Plan
00:49:13.325                             : en:Building the Bird
00:52:50.626                             : en:Hopper's Hideout
00:56:35.976                             : en:The Celebration
00:58:49.192                             : en:P. T. Arrives
01:02:23.948                             : en:The Grasshoppers Return
01:04:26.988                             : en:To the Clubhouse
01:05:30.176                             : en:Dot Goes for Help
01:06:47.003                             : en:Turning Back
01:10:01.614                             : en:Grasshopper Occupation
01:10:49.078                             : en:Showtime
01:15:15.261                             : en:Flik's Bird Attacks
01:17:29.311                             : en:Flik vs. Hopper
01:20:00.295                             : en:Ant Battle
01:21:12.910                             : en:Rain
01:23:05.439                             : en:Hopper's Demise
01:24:15.926                             : en:Springtime
01:28:30.347                             : en:End Credits
01:29:55.932                             : en:Outtakes
Світлини



2. Хрещений батько: Частина друга / The Godfather: Part II (1974) 1080p H.265 2xUkr/Eng | Sub Ukr/Eng
Хрещений батько: Частина друга / The Godfather: Part II (1974) 1080p H.265 2xUkr/Eng | Sub Ukr/Eng

Хрещений батько: Трилогія / The Godfather: Trilogy. The Coppola Restoration (1972/1974/1990) 1080p H.265 2xUkr/Eng | Sub Ukr/Eng


Жанр: кримінальний, драма
Країна: США
Кінокомпанія: Paramount Pictures, The Coppola Company
Режисер: Френсіс Форд Коппола / Francis Ford Coppola
Актори: Аль Пачіно / Al Pacino, Роберт Дювалл / Robert Duvall, Даян Кітон / Diane Keaton, Роберт Де Ніро / Robert De Niro, Джон Казал / John Cazale, Талія Шайр / Talia Shire, Лі Страсберґ / Lee Strasberg, Майкл В. Ґаццо / Michael V. Gazzo, Джі. Ді Спрадлін / G.D. Spradlin, Річард Брайт / Richard Bright, Ґастоне Машін / Gastone Moschin, Том Роскі / Tom Rosqui, Бруно Кірбі / Bruno Kirby, Френк Сіверо / Frank Sivero, Франческа Де Сапіо / Francesca De Sapio, Джеймс Каан / James Caan

Сюжет:
Друга частина знаменитої трилогії про італійську мафію, поставлена за романами Маріо П'юзо - настільки реальними, що ходили чутки про численні, спочатку, погрози, а потім і подарунки, які він отримав від бандитів, здивованих такою достовірністю опису їхнього життя. Продовження "Хрещеного батька" розділяється на дві сюжетні лінії - одна розповідає про дитячі та юнацькі роки голови клану Віто Корлеоне, друга - змальовує становлення в якості мафіозного боса одного з його синів, Майкла, який перейняв і продовжив справу батька.

Тривалість: 03:22:06
Якість:

Відео:
кодек: H.265 (HEVC)
розмір кадру: 1918 x 1080
бітрейт: 9 704 кб/с
бітова глибина: 10 біт

Увага! Перед завантаженням переконайтесь, що ваш пристрій відтворення (та/або ПЗ) підтримує H.265 (HEVC)

Аудіо # 1:
мова: українська
переклад: двоголосий закадровий
кодек: AC-3 2.0
бітрейт: 192 кб/с

Аудіо # 2:
мова: українська
переклад: багатоголосий закадровий
кодек: AC-3 2.0
бітрейт: 192 кб/с

Аудіо # 3:
мова: англійська
переклад: оригінал
кодек: 5.1
бітрейт: 1510 кб/с

Аудіо # 4:
мова: англійська
переклад: оригінал | Commentary by Francis Ford Coppola
кодек: AC-3 2.0
бітрейт: 192 кб/с

Субтитри # 1: (Full from Netflix)
мова: українська
тип: програмні (м'які)
формат: *.srt

Субтитри # 2-5: (Forced, Full, SDH, Commentary by Francis Ford Coppola)
мова: англійська
тип: програмні (м'які)
формат: *.srt


Info
Код:
General
Unique ID                                : 227266901079081097887520597986684204287 (0xAAFA0354FE06A6198A83D091723474FF)
Complete name                            : 2. The Godfather. Part II (1974) 1080p H.265 [2xUKR_ENG] [Hurtom].
Format                                   :
Format version                           : Version 4
File size                                : 16.6 GiB
Duration                                 : 3 h 22 min
Overall bit rate                         : 11.8 Mb/s
Movie name                               : Хрещений батько: Частина друга / The Godfather: Part II (1974)
Encoded date                             : UTC 2020-06-26 11:33:10
Writing application                      : v20.0.0 ('I Am The Sun') 64-bit
Writing library                          : libebml v1.3.5 + v1.4.8
Cover                                    : Yes
Attachments                              : Cover.jpg

Video
ID                                       : 1
Format                                   : HEVC
Format/Info                              : High Efficiency Video Coding
Format profile                           : Main [email protected]@High
Codec ID                                 : V_MPEGH/ISO/HEVC
Duration                                 : 3 h 22 min
Bit rate                                 : 9 703 kb/s
Width                                    : 1 918 pixels
Height                                   : 1 080 pixels
Display aspect ratio                     : 16:9
Frame rate mode                          : Constant
Frame rate                               : 23.976 (24000/1001) FPS
Color space                              : YUV
Chroma subsampling                       : 4:2:0
Bit depth                                : 10 bits
Bits/(Pixel*Frame)                       : 0.195
Stream size                              : 13.7 GiB (82%)
Title                                    : Хрещений батько: Частина друга / The Godfather: Part II (1974)
Writing library                          : x265 3.3+2-gbe2d82093:[Windows][GCC 10.0.1][64 bit] 10bit
Encoding settings                        : cpuid=1111039 / frame-threads=4 / numa-pools=16 / wpp / no-pmode / no-pme / no-psnr / no-ssim / log-level=2 / input-csp=1 / input-res=1918x1080 / interlace=0 / total-frames=290742 / level-idc=41 / high-tier=1 / uhd-bd=0 / ref=5 / no-allow-non-conformance / no-repeat-headers / annexb / no-aud / no-hrd / info / hash=0 / no-temporal-layers / open-gop / min-keyint=24 / keyint=240 / gop-lookahead=0 / bframes=11 / b-adapt=2 / b-pyramid / bframe-bias=0 / rc-lookahead=60 / lookahead-slices=1 / scenecut=40 / hist-scenecut=0 / radl=0 / no-splice / no-intra-refresh / ctu=32 / min-cu-size=8 / rect / amp / max-tu-size=32 / tu-inter-depth=4 / tu-intra-depth=4 / limit-tu=1 / rdoq-level=2 / dynamic-rd=0.00 / no-ssim-rd / signhide / no-tskip / nr-intra=0 / nr-inter=0 / no-constrained-intra / no-strong-intra-smoothing / max-merge=5 / limit-refs=3 / limit-modes / me=3 / subme=7 / merange=57 / temporal-mvp / no-frame-dup / hme / Level / merange / L0,L1,L2=16,32,57 / weightp / weightb / no-analyze-src-pics / deblock=-3:-3 / no-sao / no-sao-non-deblock / rd=6 / selective-sao=0 / no-early-skip / rskip / rskip-edge-threshold=0.050000 / no-fast-intra / no-tskip-fast / no-cu-lossless / b-intra / no-splitrd-skip / rdpenalty=0 / psy-rd=1.50 / psy-rdoq=0.80 / no-rd-refine / no-lossless / cbqpoffs=0 / crqpoffs=0 / rc=crf / crf=20.0 / qcomp=0.67 / qpstep=4 / stats-write=0 / stats-read=0 / vbv-maxrate=50000 / vbv-bufsize=50000 / vbv-init=0.9 / crf-max=0.0 / crf-min=0.0 / ipratio=1.40 / pbratio=1.30 / aq-mode=1 / aq-strength=1.00 / no-cutree / zone-count=0 / no-strict-cbr / qg-size=32 / no-rc-grain / qpmax=69 / qpmin=0 / no-const-vbv / sar=1 / overscan=0 / videoformat=5 / range=0 / colorprim=1 / transfer=1 / colormatrix=1 / chromaloc=0 / display-window=0 / cll=0,0 / min-luma=0 / max-luma=1023 / log2-max-poc-lsb=8 / vui-timing-info / vui-hrd-info / slices=1 / no-opt-qp-pps / no-opt-ref-list-length-pps / no-multi-pass-opt-rps / scenecut-bias=0.05 / hist-threshold=0.01 / no-opt-cu-delta-qp / no-aq-motion / no-hdr10 / no-hdr10-opt / no-dhdr10-opt / no-idr-recovery-sei / analysis-reuse-level=0 / analysis-save-reuse-level=0 / analysis-load-reuse-level=0 / scale-factor=0 / refine-intra=0 / refine-inter=0 / refine-mv=1 / refine-ctu-distortion=0 / no-limit-sao / ctu-info=0 / no-lowpass-dct / refine-analysis-type=0 / copy-pic=1 / max-ausize-factor=1.0 / no-dynamic-refine / no-single-sei / no-hevc-aq / no-svt / no-field / qp-adaptation-range=1.00 / no-scenecut-aware-qpconformance-window-offsets / right=0 / bottom=0
Language                                 : English
Default                                  : Yes
Forced                                   : No
Color range                              : Limited
Color primaries                          : BT.709
Transfer characteristics                 : BT.709
Matrix coefficients                      : BT.709

Audio #1
ID                                       : 2
Format                                   : AC-3
Format/Info                              : Audio Coding 3
Commercial name                          : Dolby Digital
Codec ID                                 : A_AC3
Duration                                 : 3 h 22 min
Bit rate mode                            : Constant
Bit rate                                 : 192 kb/s
Channel(s)                               : 2 channels
Channel layout                           : L R
Sampling rate                            : 48.0 kHz
Frame rate                               : 31.250 FPS (1536 SPF)
Compression mode                         : Lossy
Stream size                              : 278 MiB (2%)
Title                                    : / 2.0 Ch / 192 kbps / ДЗ / 1+1
Language                                 : Ukrainian
Service kind                             : Complete Main
Default                                  : Yes
Forced                                   : Yes

Audio #2
ID                                       : 3
Format                                   : AC-3
Format/Info                              : Audio Coding 3
Commercial name                          : Dolby Digital
Codec ID                                 : A_AC3
Duration                                 : 3 h 22 min
Bit rate mode                            : Constant
Bit rate                                 : 192 kb/s
Channel(s)                               : 2 channels
Channel layout                           : L R
Sampling rate                            : 48.0 kHz
Frame rate                               : 31.250 FPS (1536 SPF)
Compression mode                         : Lossy
Stream size                              : 278 MiB (2%)
Title                                    : / 2.0 Ch / 192 kbps / БЗ / Inter / ТакТребаПродакшн
Language                                 : Ukrainian
Service kind                             : Complete Main
Default                                  : No
Forced                                   : No

Audio #3
ID                                       : 4
Format                                   :
Format/Info                              : Digital Theater Systems
Codec ID                                 : A_DTS
Duration                                 : 3 h 22 min
Bit rate mode                            : Constant
Bit rate                                 : 1 509 kb/s
Channel(s)                               : 6 channels
Channel layout                           : C L R Ls Rs LFE
Sampling rate                            : 48.0 kHz
Frame rate                               : 93.750 FPS (512 SPF)
Bit depth                                : 16 bits
Compression mode                         : Lossy
Stream size                              : 2.13 GiB (13%)
Title                                    : / 5.1 Ch / 1509 kbps / Original
Language                                 : English
Default                                  : No
Forced                                   : No

Audio #4
ID                                       : 5
Format                                   : AC-3
Format/Info                              : Audio Coding 3
Commercial name                          : Dolby Digital
Codec ID                                 : A_AC3
Duration                                 : 3 h 22 min
Bit rate mode                            : Constant
Bit rate                                 : 192 kb/s
Channel(s)                               : 2 channels
Channel layout                           : L R
Sampling rate                            : 48.0 kHz
Frame rate                               : 31.250 FPS (1536 SPF)
Compression mode                         : Lossy
Stream size                              : 278 MiB (2%)
Title                                    : / 2.0 Ch / 192 kbps / Original / Commentary by Francis Ford Coppola
Language                                 : English
Service kind                             : Complete Main
Default                                  : No
Forced                                   : No

Text #1
ID                                       : 6
Format                                   : UTF-8
Codec ID                                 : S_TEXT/UTF8
Codec ID/Info                            : UTF-8 Plain Text
Duration                                 : 3 h 15 min
Bit rate                                 : 70 b/s
Count of elements                        : 1562
Stream size                              : 101 KiB (0%)
Title                                    : Full from Netflix
Language                                 : Ukrainian
Default                                  : Yes
Forced                                   : No

Text #2
ID                                       : 7
Format                                   : UTF-8
Codec ID                                 : S_TEXT/UTF8
Codec ID/Info                            : UTF-8 Plain Text
Duration                                 : 2 h 57 min
Bit rate                                 : 7 b/s
Count of elements                        : 300
Stream size                              : 10.2 KiB (0%)
Title                                    : Forced
Language                                 : English
Default                                  : No
Forced                                   : No

Text #3
ID                                       : 8
Format                                   : UTF-8
Codec ID                                 : S_TEXT/UTF8
Codec ID/Info                            : UTF-8 Plain Text
Duration                                 : 3 h 13 min
Bit rate                                 : 43 b/s
Count of elements                        : 1498
Stream size                              : 61.3 KiB (0%)
Title                                    : Full
Language                                 : English
Default                                  : No
Forced                                   : No

Text #4
ID                                       : 9
Format                                   : UTF-8
Codec ID                                 : S_TEXT/UTF8
Codec ID/Info                            : UTF-8 Plain Text
Duration                                 : 3 h 14 min
Bit rate                                 : 46 b/s
Count of elements                        : 1817
Stream size                              : 66.4 KiB (0%)
Title                                    : SDH
Language                                 : English
Default                                  : No
Forced                                   : No

Text #5
ID                                       : 10
Format                                   : UTF-8
Codec ID                                 : S_TEXT/UTF8
Codec ID/Info                            : UTF-8 Plain Text
Duration                                 : 3 h 16 min
Bit rate                                 : 69 b/s
Count of elements                        : 1985
Stream size                              : 100.0 KiB (0%)
Title                                    : Commentary by Francis Ford Coppola
Language                                 : English
Default                                  : No
Forced                                   : No

Menu
00:00:00.000                             : en:I Believe In America
00:07:30.784                             : en:The Wedding
00:18:03.624                             : en:Johnny Fontane
00:27:03.455                             : en:Tom Hagen Goes To Hollywood
00:34:20.183                             : en:Meeting With Sollozo
00:40:17.749                             : en:Shooting Of Don Corleone
00:48:52.304                             : en:Luca Brasi Sleeps With The Fishes
00:58:18.328                             : en:Michael At The Hospital
01:08:44.579                             : en:It's Strictly Business
01:15:49.003                             : en:How's The Italian Food In This Restaurant?
01:30:00.687                             : en:The Don Returns Home
01:37:06.863                             : en:The Thunderbolt
01:46:18.163                             : en:Sonny Gives Carlo A Warning
01:49:30.189                             : en:Michael Marries Apollonia
01:53:57.664                             : en:I Don't Want His Mother To See Him This Way
02:03:21.311                             : en:Apolonia's Murder
02:06:37.256                             : en:We Are All Reasonable Men Here
02:13:28.125                             : en:The Don Puts Michael In Charge
02:19:47.462                             : en:I'm Moe Green
02:25:56.706                             : en:I Never Wanted This For You
02:36:56.032                             : en:Baptism And Murder
02:44:43.540                             : en:Don't Ask Me About My Business, Kay
02:53:05.750                             : en:End Credits
Світлини



3. Хрещений батько: Частина третя / The Godfather: Part III (1990) 1080p H.265 2xUkr/Eng | Sub Ukr/Eng
Хрещений батько: Частина третя / The Godfather: Part III (1990) 1080p H.265 2xUkr/Eng | Sub Ukr/Eng

Хрещений батько: Трилогія / The Godfather: Trilogy. The Coppola Restoration (1972/1974/1990) 1080p H.265 2xUkr/Eng | Sub Ukr/Eng


Жанр: кримінальний, драма, детектив, трилер
Країна: США
Кінокомпанія: Paramount Pictures, Zoetrope Studios
Режисер: Френсіс Форд Коппола / Francis Ford Coppola
Актори: Аль Пачіно / Al Pacino, Даян Кітон / Diane Keaton, Талія Шайр / Talia Shire, Енді Ґарсія / Andy Garcia, Елі Воллах / Eli Wallach, Джо Мантенья / Joe Mantegna, Джордж Гемілтон / George Hamilton, Бріджет Фонда / Bridget Fonda, Софія Коппола / Sofia Coppola, Раф Валлоне / Raf Vallone, Френк Де Андросіо / Franc D'Ambrosio, Донал Доннелі / Donal Donnelly, Річард Брайт / Richard Bright, Гулмьмут Берґер / Helmut Berger, Дон Новелло / Don Novello

Сюжет:
Через двадцять п'ять років після виходу на екрани другого фільму режисер Френсіс Форд Коппола вирішив повернутися до одного з найвідоміших своїх творінь, аби довести його до логічного завершення. В заключній частині трилогії про гангстерську родину Корлеоне мова йде про традиційне продовження справ будь-якого кримінального боса - дон Майкл Корлеоне намагається легалізувати свій бізнес і стати повністю чесною людиною і членом суспільства. Але життя підкладає часом несподівані пастки і Майклові доводиться згадати призабутий досвід кривавих методів вирішення проблем.

Тривалість: 02:50:15
Якість:

Відео:
кодек: H.265 (HEVC)
розмір кадру: 1912 x 1080
бітрейт: 14 027 кб/с
бітова глибина: 10 біт

Увага! Перед завантаженням переконайтесь, що ваш пристрій відтворення (та/або ПЗ) підтримує H.265 (HEVC)

Аудіо # 1:
мова: українська
переклад: двоголосий закадровий
кодек: AC-3 2.0
бітрейт: 192 кб/с

Аудіо # 2:
мова: українська
переклад: багатоголосий закадровий
кодек: AC-3 2.0
бітрейт: 192 кб/с

Аудіо # 3:
мова: англійська
переклад: оригінал
кодек: 5.1
бітрейт: 1510 кб/с

Аудіо # 4:
мова: англійська
переклад: оригінал | Commentary by Francis Ford Coppola
кодек: AC-3 2.0
бітрейт: 192 кб/с

Субтитри # 1: (Full from Netflix)
мова: українська
тип: програмні (м'які)
формат: *.srt

Субтитри # 2-5: (Forced, Full, SDH, Commentary by Francis Ford Coppola)
мова: англійська
тип: програмні (м'які)
формат: *.srt


Info
Код:
General
Unique ID                                : 111626656307037563631665425137620997200 (0x53FA831242359F3A46D135A7C6DFD450)
Complete name                            : 3. The Godfather. Part III (1990) 1080p H.265 [2xUKR_ENG] [Hurtom].
Format                                   :
Format version                           : Version 4
File size                                : 19.2 GiB
Duration                                 : 2 h 50 min
Overall bit rate                         : 16.1 Mb/s
Movie name                               : Хрещений батько: Частина третя / The Godfather: Part III (1990)
Encoded date                             : UTC 2020-06-26 11:41:37
Writing application                      : v20.0.0 ('I Am The Sun') 64-bit
Writing library                          : libebml v1.3.5 + v1.4.8
Cover                                    : Yes
Attachments                              : Cover.jpg

Video
ID                                       : 1
Format                                   : HEVC
Format/Info                              : High Efficiency Video Coding
Format profile                           : Main [email protected]@High
Codec ID                                 : V_MPEGH/ISO/HEVC
Duration                                 : 2 h 50 min
Bit rate                                 : 14.0 Mb/s
Width                                    : 1 912 pixels
Height                                   : 1 080 pixels
Display aspect ratio                     : 16:9
Frame rate mode                          : Constant
Frame rate                               : 23.976 (24000/1001) FPS
Color space                              : YUV
Chroma subsampling                       : 4:2:0
Bit depth                                : 10 bits
Bits/(Pixel*Frame)                       : 0.283
Stream size                              : 16.7 GiB (87%)
Title                                    : Хрещений батько: Частина третя / The Godfather: Part III (1990)
Writing library                          : x265 3.3+2-gbe2d82093:[Windows][GCC 10.0.1][64 bit] 10bit
Encoding settings                        : cpuid=1111039 / frame-threads=4 / numa-pools=16 / wpp / no-pmode / no-pme / no-psnr / no-ssim / log-level=2 / input-csp=1 / input-res=1912x1080 / interlace=0 / total-frames=244921 / level-idc=41 / high-tier=1 / uhd-bd=0 / ref=5 / no-allow-non-conformance / no-repeat-headers / annexb / no-aud / no-hrd / info / hash=0 / no-temporal-layers / open-gop / min-keyint=24 / keyint=240 / gop-lookahead=0 / bframes=10 / b-adapt=2 / b-pyramid / bframe-bias=0 / rc-lookahead=60 / lookahead-slices=1 / scenecut=40 / hist-scenecut=0 / radl=0 / no-splice / no-intra-refresh / ctu=32 / min-cu-size=8 / rect / amp / max-tu-size=32 / tu-inter-depth=4 / tu-intra-depth=4 / limit-tu=1 / rdoq-level=2 / dynamic-rd=0.00 / no-ssim-rd / signhide / no-tskip / nr-intra=0 / nr-inter=0 / no-constrained-intra / no-strong-intra-smoothing / max-merge=5 / limit-refs=3 / limit-modes / me=3 / subme=7 / merange=57 / temporal-mvp / no-frame-dup / hme / Level / merange / L0,L1,L2=16,32,57 / weightp / weightb / no-analyze-src-pics / deblock=-3:-3 / no-sao / no-sao-non-deblock / rd=6 / selective-sao=0 / no-early-skip / rskip / rskip-edge-threshold=0.050000 / no-fast-intra / no-tskip-fast / no-cu-lossless / b-intra / no-splitrd-skip / rdpenalty=0 / psy-rd=1.50 / psy-rdoq=0.50 / no-rd-refine / no-lossless / cbqpoffs=0 / crqpoffs=0 / rc=crf / crf=20.0 / qcomp=0.67 / qpstep=4 / stats-write=0 / stats-read=0 / vbv-maxrate=50000 / vbv-bufsize=50000 / vbv-init=0.9 / crf-max=0.0 / crf-min=0.0 / ipratio=1.40 / pbratio=1.30 / aq-mode=1 / aq-strength=1.00 / no-cutree / zone-count=0 / no-strict-cbr / qg-size=32 / no-rc-grain / qpmax=69 / qpmin=0 / no-const-vbv / sar=1 / overscan=0 / videoformat=5 / range=0 / colorprim=1 / transfer=1 / colormatrix=1 / chromaloc=0 / display-window=0 / cll=0,0 / min-luma=0 / max-luma=1023 / log2-max-poc-lsb=8 / vui-timing-info / vui-hrd-info / slices=1 / no-opt-qp-pps / no-opt-ref-list-length-pps / no-multi-pass-opt-rps / scenecut-bias=0.05 / hist-threshold=0.01 / no-opt-cu-delta-qp / no-aq-motion / no-hdr10 / no-hdr10-opt / no-dhdr10-opt / no-idr-recovery-sei / analysis-reuse-level=0 / analysis-save-reuse-level=0 / analysis-load-reuse-level=0 / scale-factor=0 / refine-intra=0 / refine-inter=0 / refine-mv=1 / refine-ctu-distortion=0 / no-limit-sao / ctu-info=0 / no-lowpass-dct / refine-analysis-type=0 / copy-pic=1 / max-ausize-factor=1.0 / no-dynamic-refine / no-single-sei / no-hevc-aq / no-svt / no-field / qp-adaptation-range=1.00 / no-scenecut-aware-qpconformance-window-offsets / right=0 / bottom=0
Language                                 : English
Default                                  : Yes
Forced                                   : No
Color range                              : Limited
Color primaries                          : BT.709
Transfer characteristics                 : BT.709
Matrix coefficients                      : BT.709

Audio #1
ID                                       : 2
Format                                   : AC-3
Format/Info                              : Audio Coding 3
Commercial name                          : Dolby Digital
Codec ID                                 : A_AC3
Duration                                 : 2 h 50 min
Bit rate mode                            : Constant
Bit rate                                 : 192 kb/s
Channel(s)                               : 2 channels
Channel layout                           : L R
Sampling rate                            : 48.0 kHz
Frame rate                               : 31.250 FPS (1536 SPF)
Compression mode                         : Lossy
Stream size                              : 234 MiB (1%)
Title                                    : / 2.0 Ch / 192 kbps / ДЗ / 1+1
Language                                 : Ukrainian
Service kind                             : Complete Main
Default                                  : Yes
Forced                                   : Yes

Audio #2
ID                                       : 3
Format                                   : AC-3
Format/Info                              : Audio Coding 3
Commercial name                          : Dolby Digital
Codec ID                                 : A_AC3
Duration                                 : 2 h 50 min
Bit rate mode                            : Constant
Bit rate                                 : 192 kb/s
Channel(s)                               : 2 channels
Channel layout                           : L R
Sampling rate                            : 48.0 kHz
Frame rate                               : 31.250 FPS (1536 SPF)
Compression mode                         : Lossy
Stream size                              : 234 MiB (1%)
Title                                    : / 2.0 Ch / 192 kbps / БЗ / Inter / ТакТребаПродакшн
Language                                 : Ukrainian
Service kind                             : Complete Main
Default                                  : No
Forced                                   : No

Audio #3
ID                                       : 4
Format                                   :
Format/Info                              : Digital Theater Systems
Codec ID                                 : A_DTS
Duration                                 : 2 h 50 min
Bit rate mode                            : Constant
Bit rate                                 : 1 509 kb/s
Channel(s)                               : 6 channels
Channel layout                           : C L R Ls Rs LFE
Sampling rate                            : 48.0 kHz
Frame rate                               : 93.750 FPS (512 SPF)
Bit depth                                : 16 bits
Compression mode                         : Lossy
Stream size                              : 1.79 GiB (9%)
Title                                    : / 5.1 Ch / 1509 kbps / Original
Language                                 : English
Default                                  : No
Forced                                   : No

Audio #4
ID                                       : 5
Format                                   : AC-3
Format/Info                              : Audio Coding 3
Commercial name                          : Dolby Digital
Codec ID                                 : A_AC3
Duration                                 : 2 h 50 min
Bit rate mode                            : Constant
Bit rate                                 : 192 kb/s
Channel(s)                               : 2 channels
Channel layout                           : L R
Sampling rate                            : 48.0 kHz
Frame rate                               : 31.250 FPS (1536 SPF)
Compression mode                         : Lossy
Stream size                              : 234 MiB (1%)
Title                                    : / 2.0 Ch / 192 kbps / Original / Commentary by Francis Ford Coppola
Language                                 : English
Service kind                             : Complete Main
Default                                  : No
Forced                                   : No

Text #1
ID                                       : 6
Format                                   : UTF-8
Codec ID                                 : S_TEXT/UTF8
Codec ID/Info                            : UTF-8 Plain Text
Duration                                 : 2 h 47 min
Bit rate                                 : 67 b/s
Count of elements                        : 1364
Stream size                              : 83.3 KiB (0%)
Title                                    : Full from Netflix
Language                                 : Ukrainian
Default                                  : Yes
Forced                                   : No

Text #2
ID                                       : 7
Format                                   : UTF-8
Codec ID                                 : S_TEXT/UTF8
Codec ID/Info                            : UTF-8 Plain Text
Duration                                 : 1 h 45 min
Bit rate                                 : 3 b/s
Count of elements                        : 83
Stream size                              : 2.97 KiB (0%)
Title                                    : Forced
Language                                 : English
Default                                  : No
Forced                                   : No

Text #3
ID                                       : 8
Format                                   : UTF-8
Codec ID                                 : S_TEXT/UTF8
Codec ID/Info                            : UTF-8 Plain Text
Duration                                 : 2 h 37 min
Bit rate                                 : 42 b/s
Count of elements                        : 1282
Stream size                              : 48.8 KiB (0%)
Title                                    : Full
Language                                 : English
Default                                  : No
Forced                                   : No

Text #4
ID                                       : 9
Format                                   : UTF-8
Codec ID                                 : S_TEXT/UTF8
Codec ID/Info                            : UTF-8 Plain Text
Duration                                 : 2 h 44 min
Bit rate                                 : 44 b/s
Count of elements                        : 1530
Stream size                              : 53.6 KiB (0%)
Title                                    : SDH
Language                                 : English
Default                                  : No
Forced                                   : No

Text #5
ID                                       : 10
Format                                   : UTF-8
Codec ID                                 : S_TEXT/UTF8
Codec ID/Info                            : UTF-8 Plain Text
Duration                                 : 2 h 45 min
Bit rate                                 : 76 b/s
Count of elements                        : 1928
Stream size                              : 92.4 KiB (0%)
Title                                    : Commentary by Francis Ford Coppola
Language                                 : English
Default                                  : No
Forced                                   : No

Menu
00:00:00.000                             : en:Michael's Letter
00:06:01.152                             : en:Party At Michael's Apartment
00:14:36.333                             : en:Anthony's Decision
00:23:00.087                             : en:The Trouble Between Vincent And Joey Zasa
00:32:25.318                             : en:Who Sent You?
00:39:26.197                             : en:The Archbishopo Asks For Michael's Help
00:43:00.286                             : en:Shareholder's Meeting
00:49:31.051                             : en:The Vatican Bank, Rome
00:53:31.583                             : en:Atlantic City Massacre
01:04:12.265                             : en:Just When I Thought I Was Out
01:12:41.273                             : en:Mary Visits Vincent At The Club
01:16:32.713                             : en:Street Fair
01:19:46.198                             : en:Michael At The Hospital
01:25:00.720                             : en:Return To Sicily
01:33:08.416                             : en:Michael Tells Vincent His Plan
01:38:18.601                             : en:Confession
01:49:40.365                             : en:Michael Shows Kay Sicily
02:03:38.786                             : en:Pope John Paul The First
02:06:16.360                             : en:Give Me A Chance To Redeem Myself
02:12:26.355                             : en:Teatro Massimo
02:17:46.299                             : en:Cavalleria Rusticana
02:26:51.302                             : en:Revenge
02:35:44.626                             : en:Finale On The Steps
02:40:44.926                             : en:The Death Of Michael Corleone
02:42:45.338                             : en:End Credits
Світлини




Джерело: &
Особиста оцінка: 10 - без зайвих вагань рекомендую всім!

Подяка пану leicheman за надані укр. субтитри


Золотий реліз (завантажене не впливає на рейтинг)
 Трекер:    Зареєстрований   

Завантажити / скачати фільм українською



відео для новачків



 Зареєстрований:   2020-06-30 11:51
 Розмір:   51.17 GB 
 Оцінка фільму:   10/10 (Голосів: 6)
   
uaxpasha 
VIP


З нами з: 05.08.12
Востаннє: 12.07.20
Повідомлень: 337

2020-06-30 12:20  
Перші дві шедеври на всі часи

третя ж... так і не додивився, хтось може сказати чи варто?

kpomed 
Частий відвідувач


З нами з: 12.10.13
Востаннє: 12.07.20
Повідомлень: 30

2020-06-30 12:38  
Звичайно варто. when i thought i was out they pull me back in! Це ж класика !
Раз в декілька років передивляюсь )
Це ж шедеври:хрещений, сопрано, людина зі шрамом тепер ще ірландець.

leicheman 
Відео Гуртом - фільмокрай
Відео Гуртом - фільмокрай


З нами з: 03.07.14
Востаннє: 12.07.20
Повідомлень: 5133

2020-06-30 19:11  
ось ще пак укр.постерів
клац



pintg 
Поважний учасник


З нами з: 14.04.16
Востаннє: 12.07.20
Повідомлень: 174

2020-07-01 03:00  
Давно чекав на цю стрічку у h.265... правда, я чомусь очікував, що вона при цьому буде важити менше ніж , а не більше=) Разом з попередніми версіями загальний розмір зайнятим Хрещеним батьком перевалив за 100 Gb=)
Anonymous 







2020-07-01 21:29  
leicheman
красно дякую!

Ваш часовий пояс: GMT + 2 Години

Нова тема   Відповісти