Зв'язок / Coherence (2013) 1080p Ukr/Eng | Sub Eng

Нові коментарі

Нова тема   Відповісти
Автор Повідомлення
Anonymous 







2020-06-30 00:56  
Зв'язок / Coherence (2013) 1080p Ukr/Eng | Sub Eng




Жанр: фантастика, жахи, драма, детектив, трилер
Країна: США, Велика Британія



Кінокомпанія: Ugly Duckling Films, Bellanova Films
Режисер: Джеймс Уорд Біркіт / James Ward Byrkit
Актори: Емілі Бальдоні / Emily Baldoni, Морі Стерлінг / Maury Sterling, Ніколас Брендон / Nicholas Brendon, Лорен Скафарія / Lorene Scafaria, Елізабет Грейсен / Elizabeth Gracen, Лорен Мехер / Lauren Maher та ін.

Сюжет:
У ніч падіння комети на званій вечері збираються вісім друзів. Насолоджуючись спілкуванням, вони навіть не підозрюють про прийдешні зміни і під час невимушеної бесіди стають учасниками ланцюга дивних і загадкових подій. Ігри з минулим, сьогоденням і майбутнім.

Тривалість: 01:27:52
Якість: 1080p

Відео:
Кодек:
Розмір кадру: 1916 x 820
Бітрейт: 13.6 Мбіт/с

Аудіо #1:
Мова: українська
Переклад: багатоголосий закадровий
Кодек: 2.0
Бітрейт: 192 Кбіт/с

Аудіо #2:
Мова: англійська
Переклад: Оригінал
Кодек: 5.1
Бітрейт: 1509 Кбіт/с

Субтитри:
Мова: англійська | Повні
Тип: програмні (м'які)
Формат: *.srt

Info


General
Unique ID : 266430174030681293228262634395157998929 (0xC87095C4397CB7F427FDBDF820612D51)
Format :
Format version : Version 4
File size : 9.38 GiB
Duration : 1 h 27 min
Overall bit rate : 15.3 Mb/s
Movie name : Coherence (2013) 1080p [UkrEng][SubEng] [Hurtom]
Encoded date : UTC 2020-06-29 17:47:42
Writing application : v46.0.0 ('No Deeper Escape') 64-bit
Writing library : libebml v1.3.10 + v1.5.2
Attachments : poster_eng.jpg

Video
ID : 1
Format : AVC
Format/Info : Advanced Video Codec
Format profile : [email protected]
Format settings : CABAC / 5 Ref Frames
Format settings, CABAC : Yes
Format settings, Reference fra : 5 frames
Codec ID : V_MPEG4/ISO/AVC
Duration : 1 h 27 min
Bit rate : 13.6 Mb/s
Width : 1 916 pixels
Height : 820 pixels
Display aspect ratio : 2.35:1
Frame rate mode : Constant
Frame rate : 24.000 FPS
Color space : YUV
Chroma subsampling : 4:2:0
Bit depth : 8 bits
Scan type : Progressive
Bits/(Pixel*Frame) : 0.360
Stream size : 8.33 GiB (89%)
Title : Coherence (2013) 1080p
Writing library : core 157 r2935 545de2f
Encoding settings : cabac=1 / ref=5 / deblock=1:-3:-3 / analyse=0x3:0x133 / me=umh / subme=10 / psy=1 / psy_rd=1.00:0.00 / mixed_ref=1 / me_range=24 / chroma_me=1 / trellis=2 / 8x8dct=1 / cqm=0 / deadzone=21,11 / fast_pskip=0 / chroma_qp_offset=-2 / threads=18 / lookahead_threads=3 / sliced_threads=0 / nr=0 / decimate=1 / interlaced=0 / bluray_compat=0 / constrained_intra=0 / bframes=8 / b_pyramid=2 / b_adapt=2 / b_bias=0 / direct=3 / weightb=1 / open_gop=0 / weightp=2 / keyint=240 / keyint_min=24 / scenecut=40 / intra_refresh=0 / rc_lookahead=60 / rc=crf / mbtree=1 / crf=9.0 / qcomp=0.60 / qpmin=0 / qpmax=69 / qpstep=4 / vbv_maxrate=62500 / vbv_bufsize=78125 / crf_max=0.0 / nal_hrd=none / filler=0 / ip_ratio=1.40 / aq=1:1.00
Language : English
Default : Yes
Forced : No
Color range : Limited
Color primaries : BT.709
Transfer characteristics : BT.709
Matrix coefficients : BT.709

Audio #1
ID : 2
Format : AC-3
Format/Info : Audio Coding 3
Commercial name : Dolby Digital
Codec ID : A_AC3
Duration : 1 h 27 min
Bit rate mode : Constant
Bit rate : 192 kb/s
Channel(s) : 2 channels
Channel layout : L R
Sampling rate : 48.0 kHz
Frame rate : 31.250 FPS (1536 SPF)
Compression mode : Lossy
Stream size : 121 MiB (1%)
Title : MVO 2.0 @ 192 Кбіт/с
Language : Ukrainian
Service kind : Complete Main
Default : Yes
Forced : Yes

Audio #2
ID : 3
Format :
Format/Info : Digital Theater Systems
Codec ID : A_DTS
Duration : 1 h 27 min
Bit rate mode : Constant
Bit rate : 1 509 kb/s
Channel(s) : 6 channels
Channel layout : C L R Ls Rs LFE
Sampling rate : 48.0 kHz
Frame rate : 93.750 FPS (512 SPF)
Bit depth : 16 bits
Compression mode : Lossy
Stream size : 948 MiB (10%)
Title : [Оригінал] 5.1 @ 1509 Кбіт/с
Language : English
Default : No
Forced : No

Text
ID : 4
Format : UTF-8
Codec ID : S_TEXT/UTF8
Codec ID/Info : UTF-8 Plain Text
Duration : 1 h 27 min
Bit rate : 95 b/s
Count of elements : 1695
Stream size : 61.2 KiB (0%)
Title : Повні
Language : English
Default : No
Forced : No

Menu
00:00:00.000 : :Chapter 01
00:09:38.125 : :Chapter 02
00:22:28.958 : :Chapter 03
00:32:46.083 : :Chapter 04
00:41:56.166 : :Chapter 05
00:56:21.875 : :Chapter 06
01:06:47.000 : :Chapter 07
01:16:53.416 : :Chapter 08
Скріншоти








Джерело:


 Трекер:    Зареєстрований   

Завантажити / скачати фільм українською



відео для новачків



 Зареєстрований:   2020-06-30 00:56
 Розмір:   9.38 GB 
 Оцінка фільму:   9.4/10 (Голосів: 7)
   
Інші релізи
   Зв'язок / Coherence (2013) 720p Ukr/Eng | Sub Eng staf777  5 / 0   3.46 GB   2020-07-07 11:55 
   Зв'язок / Coherence (2013) AVC Ukr/Eng | Sub Eng Maters  26 / 0   1.41 GB   2020-06-27 23:27 
pankos 
Частий відвідувач


З нами з: 16.01.11
Востаннє: 18.09.20
Повідомлень: 35

2020-06-30 23:36  
Марно витрачений час.
Ваш часовий пояс: GMT + 2 Години

Нова тема   Відповісти