Небезпечно для роботи / Not Safe for Work (2014) 1080p Eng | Sub Ukr/Eng

Нові коментарі

Нова тема   Відповісти
Останній раз роздавалося Timm (2020-07-11)
Автор Повідомлення
Anonymous 







2020-06-30 00:33  
Небезпечно для роботи / Not Safe for Work (2014) 1080p Eng | Sub Ukr/Eng




Жанр: триллер
Країна: США



Кінокомпанія: Blumhouse Productions
Режисер: Джо Джонстон
Актори: Майкл Гледіс, Ден Баккедаль, Макс Мінгелла, Френкі Дж. Еллісон, Моллі Хейген, Алехандро Патіно, Крістиан Кліменсон

Сюжет:
Звичайний офісний працівник Том Міллер змушений вступити в смертельне протистояння з божевільним вбивцею, який опинився в одній з ним будівлі. Том намагається захистити співробітників своєї юридичної фірми, які не підозрюють про загрозу, проте незабаром з'ясовує, що його колеги приховують жахливу таємницю, через яку тисячі життів наражаються на небезпеку.

Тривалість:
Якість: 1080p

Відео:
Кодек:
Розмір кадру: 1920 x 1036
Бітрейт: 14.4 Мбіт/с

Аудіо 2:
Мова: англійська
Переклад: Оригінал
Кодек: 5.1
Бітрейт: 1509 Кбіт/с

Субтитри:
Мова: українська | Повні (Завантажити з OpenSubtitles)

Тип: програмні (м'які)
Формат: *.srt

Субтитри:
Мова: англійська | Повні
Тип: програмні (м'які)
Формат: *.srt

Info


General
Unique ID : 3625751043521844016855668381015472541 (0x2BA4B5401392DA109B0F213B6B5F99D)
Format :
Format version : Version 4
File size : 8.24 GiB
Duration : 1 h 14 min
Overall bit rate : 15.9 Mb/s
Movie name : Not Safe for Work (2014) 1080p [Eng][SubUkrEng] [Hurtom]
Encoded date : UTC 2020-06-29 15:34:14
Writing application : v46.0.0 ('No Deeper Escape') 64-bit
Writing library : libebml v1.3.10 + v1.5.2
Attachments : poster_eng.jpg

Video
ID : 1
Format : AVC
Format/Info : Advanced Video Codec
Format profile : [email protected]
Format settings : CABAC / 4 Ref Frames
Format settings, CABAC : Yes
Format settings, Reference fra : 4 frames
Codec ID : V_MPEG4/ISO/AVC
Duration : 1 h 14 min
Bit rate : 14.4 Mb/s
Width : 1 920 pixels
Height : 1 036 pixels
Display aspect ratio : 1.85:1
Frame rate mode : Constant
Frame rate : 23.976 (24000/1001) FPS
Color space : YUV
Chroma subsampling : 4:2:0
Bit depth : 8 bits
Scan type : Progressive
Bits/(Pixel*Frame) : 0.302
Stream size : 7.45 GiB (90%)
Title : Not Safe for Work (2014) 1080p
Writing library : core 157 r2935 545de2f
Encoding settings : cabac=1 / ref=4 / deblock=1:-3:-3 / analyse=0x3:0x133 / me=umh / subme=10 / psy=1 / psy_rd=1.00:0.00 / mixed_ref=1 / me_range=24 / chroma_me=1 / trellis=2 / 8x8dct=1 / cqm=0 / deadzone=21,11 / fast_pskip=0 / chroma_qp_offset=-2 / threads=18 / lookahead_threads=3 / sliced_threads=0 / nr=0 / decimate=1 / interlaced=0 / bluray_compat=0 / constrained_intra=0 / bframes=8 / b_pyramid=2 / b_adapt=2 / b_bias=0 / direct=3 / weightb=1 / open_gop=0 / weightp=2 / keyint=240 / keyint_min=24 / scenecut=40 / intra_refresh=0 / rc_lookahead=60 / rc=crf / mbtree=1 / crf=17.0 / qcomp=0.60 / qpmin=0 / qpmax=69 / qpstep=4 / vbv_maxrate=62500 / vbv_bufsize=78125 / crf_max=0.0 / nal_hrd=none / filler=0 / ip_ratio=1.40 / aq=1:1.00
Language : English
Default : Yes
Forced : No
Color range : Limited
Color primaries : BT.709
Transfer characteristics : BT.709
Matrix coefficients : BT.709

Audio
ID : 2
Format :
Format/Info : Digital Theater Systems
Codec ID : A_DTS
Duration : 1 h 14 min
Bit rate mode : Constant
Bit rate : 1 509 kb/s
Channel(s) : 6 channels
Channel layout : C L R Ls Rs LFE
Sampling rate : 48.0 kHz
Frame rate : 93.750 FPS (512 SPF)
Bit depth : 24 bits
Compression mode : Lossy
Stream size : 801 MiB (9%)
Title : [Оригінал] 5.1 @ 1509 Кбіт/с
Language : English
Default : Yes
Forced : No

Text #1
ID : 3
Format : UTF-8
Codec ID : S_TEXT/UTF8
Codec ID/Info : UTF-8 Plain Text
Duration : 1 h 9 min
Bit rate : 54 b/s
Count of elements : 680
Stream size : 28.0 KiB (0%)
Title : Повні
Language : Ukrainian
Default : Yes
Forced : No

Text #2
ID : 4
Format : UTF-8
Codec ID : S_TEXT/UTF8
Codec ID/Info : UTF-8 Plain Text
Duration : 1 h 9 min
Bit rate : 43 b/s
Count of elements : 794
Stream size : 22.1 KiB (0%)
Title : Повні
Language : English
Default : No
Forced : No

Menu
00:00:00.000 : en:(01)00:00:00:000
00:02:41.619 : en:(02)00:02:41:619
00:04:53.626 : en:(03)00:04:53:626
00:09:28.651 : en:(04)00:09:28:651
00:11:32.608 : en:(05)00:11:32:608
00:14:42.798 : en:(06)00:14:42:798
00:17:25.586 : en:(07)00:17:25:586
00:21:00.550 : en:(08)00:21:00:550
00:24:54.451 : en:(09)00:24:54:451
00:29:20.633 : en:(10)00:29:20:633
00:34:11.049 : en:(11)00:34:11:049
00:38:54.999 : en:(12)00:38:54:999
00:42:18.244 : en:(13)00:42:18:244
00:44:49.728 : en:(14)00:44:49:728
00:49:25.170 : en:(15)00:49:25:170
00:54:02.906 : en:(16)00:54:02:906
00:58:54.113 : en:(17)00:58:54:113
01:03:05.198 : en:(18)01:03:05:198
01:08:11.545 : en:(19)01:08:11:545
01:10:39.818 : en:(20)01:10:39:818
01:14:11.113 : en:(21)01:14:11:113
Скріншоти








Джерело:


 Трекер:    Зареєстрований   

Завантажити / скачати фільм українською



відео для новачків



 Зареєстрований:   2020-06-30 00:33
 Розмір:   8.24 GB 
 Оцінка фільму:   1/10 (Голосів: 1)
   
Інші релізи
Ваш часовий пояс: GMT + 2 Години

Нова тема   Відповісти