Американська сімейка (Сезони 6-8, 62 серій з 68) / Modern Family (Seasons 6-8, 62 episodes of 68) (2014-2017) 720p Ukr/Eng | sub Eng

Нові коментарі

Нова тема   Відповісти
Автор Повідомлення
Anonymous 







2020-06-29 19:06  
Американська сімейка (Сезони 6-8, 62 серій з 68) / Modern Family (Seasons 6-8, 62 episodes of 68) (2014-2017) 720p Ukr/Eng | sub Eng

Американська сімейка (Сезони 6-8, 62 серій з 68) / Modern Family (Seasons 6-8, 62 episodes of 68) (2014-2017) 720p Ukr/Eng | sub Eng


Жанр: комедія, драма
Країна: США



Кінокомпанія: 20th Century Fox Television
Режисер: Стівен Левітан (Steven Levitan), Крістофер Ллойд (Christopher Lloyd)
Актори: Ед О'Нілл (Ed O'Neill), Софія Вергара (Sofía Vergara), Джулі Боуен (Julie Bowen), Тай Баррелл (Ty Burrell), Джессі Тайлер Фергюсон (Jesse Tyler Ferguson), Ерік Стоунстріт (Eric Stonestreet) та інші

Сюжет:
Америка - країна свободи! Тут можна чинити так, як заманеться, і не думати про те, що скажуть про тебе інші. Три родини живуть своїм життям і кожну з них можна назвати «американською сімейкою». У першій родині молода пара стикається з одвічною проблемою батьків і дітей. У другій - між чоловіком і дружиною велика різниця у віці й соціальному статусі. У третій сім'ї двоє геїв виховують дівчинку, яку вони удочерили. Усі герої серіалу - це одна велика родина з представниками різних поколінь, які проживають під одним дахом. Що може статися в такій кумедній компанії? Все, що завгодно...


Тривалість: 1 серія: ~21 хв. (цілком серій: 62)
Перелік серій
Сезон 6
01) The Long Honeymoon
02) Don't Push
03) The Cold
04) Marco Polo
05) Won't You Be Our Neighbor
06) Halloween 3: AwesomeLand
07) Queer Eyes, Full Hearts
08) Three Turkeys
09) Strangers in the Night
10) Haley's 21st Birthday
11) The Day We Almost Died
12) The Big Guns
13) Rash Decisions
14) Valentine's Day 4: Twisted Sister
15) Fight or Flight
16) Connection Lost
17) Closet? You'll Love It!
18) Spring Break
19) Grill, Interrupted
20) Knock 'Em Down
21) Integrity
22) Patriot Games
23) Crying Out Loud
24) American Skyper
Сезон 7
01) Summer Lovin'
02) The Day Alex Left for College
03) The Closet Case
04) She Crazy
05) The Verdict
06) The More You Ignore Me
07) Phil's Sexy, Sexy House
08) Clean Out Your Junk Drawer
09) White Christmas
10) Playdates
11) Spread Your Wings
12) Clean for a Day
13) Thunk in the Trunk
14) The Storm
15) I Don't Know How She Does It
16) The Cover-Up
17) Express Yourself
18) The Party
19) Man Shouldn't Lie
20) Promposal
21) Crazy Train
22) Double Click
Сезон 8
01) A Tale of Three Cities
02) A Stereotypical Day
03) Blindsided
04) Weathering Heights
05) Halloween 4: The Revenge of Rod Skyhook
06) Grab It
07) Thanksgiving Jamboree
08) The Alliance
09) Snow Ball
10) Ringmaster Keifth
11) Sarge & Pea
12) Do You Believe in Magic
13) Do It Yourself
14) Heavy Is the Head
15) Finding Fizbo
16) Basketball
17) Pig Moon Rising
18) Five Minutes
19) Frank's Wedding
20) All Things Being Equal
21) Alone Time
22) The Graduates
Серії 6x01, 6x07, 6x13, 6x18, 6x19, 7x05 відсутні.


Якість:
Відео:
кодек:
розмір кадру: 1280 x 720
бітрейт: ~4000 кб/с

Аудіо # 1:
мова: українська
переклад: багатоголосий закадровий | Paramount Comedy
кодек: 2.0
бітрейт: 192 кб/с

Аудіо # 2:
мова: англійська
переклад: оригінал
кодек: 5.1
бітрейт: 384 кб/с

Субтитри:
мова: англійська
тип: програмні (м'які)
формат: *.srt
Info
General
Unique ID : 250850945355921514789945156898387969529 (0xBCB8227D43A93B421A3CD01516E0C5F9)
Complete name : E:\Support\Modern Family [, 720p, Ukr, Eng]\Season 06\Modern Family. s06e02. Don't Push.
Format :
Format version : Version 4
File size : 694 MiB
Duration : 21 min 38 s
Overall bit rate : 4 486 kb/s
Encoded date : UTC 2020-06-15 20:18:41
Writing application : v47.0.0 ('Black Flag') 64-bit
Writing library : libebml v1.3.10 + v1.5.2

Video
ID : 1
Format : AVC
Format/Info : Advanced Video Codec
Format profile : [email protected]
Format settings : 2 Ref Frames
Format settings, CABAC : No
Format settings, Reference : 2 frames
Codec ID : V_MPEG4/ISO/AVC
Duration : 21 min 38 s
Bit rate : 3 907 kb/s
Width : 1 280 pixels
Height : 720 pixels
Display aspect ratio : 16:9
Frame rate mode : Constant
Frame rate : 23.976 (23976/1000) FPS
Color space : YUV
Chroma subsampling : 4:2:0
Bit depth : 8 bits
Scan type : Progressive
Bits/(Pixel*Frame) : 0.177
Stream size : 605 MiB (87%)
Language : English
Default : Yes
Forced : No
Color range : Limited
Color primaries : BT.709
Transfer characteristics : BT.709
Matrix coefficients : BT.709

Audio #1
ID : 2
Format : AC-3
Format/Info : Audio Coding 3
Commercial name : Dolby Digital
Codec ID : A_AC3
Duration : 21 min 38 s
Bit rate mode : Constant
Bit rate : 192 kb/s
Channel(s) : 2 channels
Channel layout : L R
Sampling rate : 48.0 kHz
Frame rate : 31.250 FPS (1536 SPF)
Compression mode : Lossy
Stream size : 29.7 MiB (4%)
Title : Paramount Comedy
Language : Ukrainian
Service kind : Complete Main
Default : Yes
Forced : No

Audio #2
ID : 3
Format : AC-3
Format/Info : Audio Coding 3
Commercial name : Dolby Digital
Codec ID : A_AC3
Duration : 21 min 38 s
Bit rate mode : Constant
Bit rate : 384 kb/s
Channel(s) : 6 channels
Channel layout : L R C LFE Ls Rs
Sampling rate : 48.0 kHz
Frame rate : 31.250 FPS (1536 SPF)
Compression mode : Lossy
Stream size : 59.4 MiB (9%)
Language : English
Service kind : Complete Main
Default : No
Forced : No

Text
ID : 4
Format : UTF-8
Codec ID : S_TEXT/UTF8
Codec ID/Info : UTF-8 Plain Text
Duration : 21 min 27 s
Bit rate : 175 b/s
Count of elements : 609
Stream size : 27.6 KiB (0%)
Language : English
Default : No
Forced : No
Скріншоти

Дякую slavik_v_z за надані записи

Джерело:
Особиста оцінка: 0 - не дивився


Далі буде...




Бронзовий реліз (на рейтинг впливає 75% завантаженого)
 Трекер:    Зареєстрований   

Завантажити / скачати серіал українською



відео для новачків



 Зареєстрований:   2020-10-11 22:04
 Розмір:   43.13 GB 
 Оцінка серіалу:   10/10 (Голосів: 3)
   
Electroz 
Відео Гуртом - підтримка та поширення
Відео Гуртом - підтримка та поширення


З нами з: 18.09.14
Востаннє: 04.12.20
Повідомлень: 4221

2020-06-29 22:03  
Anonymous написано:
Серії 6x01, 6x07, 6x13, 6x18, 6x19 відсутні.

Це вони так показують, чи просто не записано?

Anonymous 







2020-06-29 22:35  
Electroz
Мені невідомо, щоб канал колись показував ці серії. Але 6-й сезон вони транслювали переважно одразу після запуску, тому не можу сказати напевно.

-_-B_Е_N_D_E_R-_- 
Забанено
Забанено


З нами з: 03.03.20
Востаннє: 29.10.20
Повідомлень: 738

2020-06-29 22:49  
Anonymous написано:
Серії 6x01, 6x07, 6x13, 6x18, 6x19 відсутні.

а під іншим сезоном вони їх не показували?

Anonymous 







2020-06-29 23:01  
-_-B_Е_N_D_E_R-_- написано:
а під іншим сезоном вони їх не показували?

Навряд.

Dark Invader 
Модератор відео


З нами з: 06.01.11
Востаннє: 04.12.20
Повідомлень: 3010

2020-06-30 22:41  
Anonymous написано:
Американська сімейка (Сезон 6)

Anonymous написано:
Серії 6x01, 6x07, 6x13, 6x18, 6x19 відсутні.

Виправте тоді опис і вкажіть наявні серії у назві.

Anonymous 







2020-08-21 10:31  
Додав сьомий сезон.
Masanchick 
Попереджень: 1
Попереджень: 1 


З нами з: 08.04.11
Востаннє: 04.12.20
Повідомлень: 627

2020-09-21 16:10  
А коли буде 8 сезон бо на парамаунт вже 9 сезон?
Anonymous 







2020-09-21 16:14  
Masanchick написано:
А коли буде 8 сезон бо на парамаунт вже 9 сезон?

Коли руки дійдуть. Може, десь через місяць.

Anonymous 







2020-10-11 22:05  
Додав восьмий сезон.
Ваш часовий пояс: GMT + 2 Години

Нова тема   Відповісти