Руйнівник / Збиток / Невиправний / Damage (2009) AVC 3xUkr

Нові коментарі

Нова тема   Відповісти
Автор Повідомлення
Arsenfpu 
Відео Гуртом - фільмокрай
Відео Гуртом - фільмокрай


З нами з: 30.04.09
Востаннє: 05.07.20
Повідомлень: 7039

2020-06-29 17:51  
Руйнівник / Збиток / Невиправний / Damage (2009) AVC 3xUkr

Руйнівник / Збиток / Невиправний / Damage (2009) AVC 3xUkr


Жанр: бойовик, драма
Країна: США, Канада



Кінокомпанія: Nasser Group, North, Insight Film Studios, NGN Fighter Productions
Режисер: Джефф Кінґ
Актори: Стів Остін, Волтон Ґоґґінс, Лора Вандервурт, Доннеллі Роудс, Джо Коста

Сюжет:
Історія Джона Брікнера про чоловіка, який нещодавно умовно звільнився з в'язниці і намагається стати на правильний шлях. Однак йому це не вдається... і він потрапляє в світ незаконних боїв без правил.


Тривалість: 01:46:24
Якість:
Відео:
кодек:
розмір кадру: 992 х 560
бітрейт: 1 752 кб/с

Аудіо # 1:
мова: українська
переклад: багатоголосий закадровий
кодек: 2.0
бітрейт: 192 кб/с

Аудіо # 2:
мова: українська
переклад: багатоголосий закадровий
кодек: 2.0
бітрейт: 192 кб/с

Аудіо # 3:
мова: українська
переклад: двоголосий закадровий
кодек: 2.0
бітрейт: 192 кб/с
примітка: бажано мати кращий запис
Скріншоти














Про файл
General
Unique ID : 298125498347051980044684740091470440827 (0xE048E1E7EDA718AEF9E563ED4840697B)
Complete name : C:\Damage (2009) [3xUkr] AVC [Hurtom].
Format :
Format version : Version 4 / Version 2
File size : 1.73 GiB
Duration : 1 h 46 min
Overall bit rate : 2 327 kb/s
Movie name : Руйнівник / Зиток / Невиправний / Damage (2009)
Encoded date : UTC 2020-06-29 14:23:49
Writing application : v21.0.0 ('Tardigrades Will Inherit The Earth') 32-bit
Writing library : libebml v1.3.5 + v1.4.8
Cover : Yes
Attachments : cover.jpg

Video
ID : 1
Format : AVC
Format/Info : Advanced Video Codec
Format profile : [email protected]
Format settings, CABAC : Yes
Format settings, ReFrames : 3 frames
Codec ID : V_MPEG4/ISO/AVC
Duration : 1 h 46 min
Bit rate : 1 752 kb/s
Width : 992 pixels
Height : 560 pixels
Display aspect ratio : 16:9
Frame rate mode : Constant
Frame rate : 23.976 (24000/1001) FPS
Color space : YUV
Chroma subsampling : 4:2:0
Bit depth : 8 bits
Scan type : Progressive
Bits/(Pixel*Frame) : 0.132
Stream size : 1.30 GiB (75%)
Writing library : core 65 r999kMod cc51047
Encoding settings : cabac=1 / ref=3 / deblock=1:0:0 / analyse=0x3:0x133 / me=umh / subme=6 / psy_rd=1.0:0.0 / mixed_ref=1 / me_range=16 / chroma_me=1 / trellis=1 / 8x8dct=1 / cqm=0 / deadzone=21,11 / chroma_qp_offset=-2 / threads=4 / thread_queue=4 / nr=0 / decimate=1 / mbaff=0 / bframes=3 / b_pyramid=1 / b_adapt=1 / b_bias=0 / direct=3 / wpredb=1 / keyint=250 / keyint_min=25 / scenecut=40(pre) / rc=2pass / bitrate=1752 / ratetol=1.0 / qcomp=0.60 / qpmin=10 / qpmax=51 / qpstep=4 / cplxblur=20.0 / qblur=0.5 / ip_ratio=1.40 / pb_ratio=1.30 / aq=1:1.00
Default : Yes
Forced : No

Audio #1
ID : 2
Format : AC-3
Format/Info : Audio Coding 3
Mode extension : CM (complete main)
Format settings, Endianness : Big
Codec ID : A_AC3
Duration : 1 h 46 min
Bit rate mode : Constant
Bit rate : 192 kb/s
Channel(s) : 2 channels
Channel positions : Front: L R
Sampling rate : 48.0 kHz
Frame rate : 31.250 FPS (1536 spf)
Compression mode : Lossy
Stream size : 146 MiB (8%)
Title : amc
Language : Ukrainian
Default : Yes
Forced : Yes

Audio #2
ID : 3
Format : AC-3
Format/Info : Audio Coding 3
Mode extension : CM (complete main)
Format settings, Endianness : Big
Codec ID : A_AC3
Duration : 1 h 46 min
Bit rate mode : Constant
Bit rate : 192 kb/s
Channel(s) : 2 channels
Channel positions : Front: L R
Sampling rate : 48.0 kHz
Frame rate : 31.250 FPS (1536 spf)
Compression mode : Lossy
Stream size : 146 MiB (8%)
Title : ICTV
Language : Ukrainian
Default : No
Forced : No

Audio #3
ID : 4
Format : AC-3
Format/Info : Audio Coding 3
Mode extension : CM (complete main)
Format settings, Endianness : Big
Codec ID : A_AC3
Duration : 1 h 46 min
Bit rate mode : Constant
Bit rate : 192 kb/s
Channel(s) : 2 channels
Channel positions : Front: L R
Sampling rate : 48.0 kHz
Frame rate : 31.250 FPS (1536 spf)
Compression mode : Lossy
Stream size : 146 MiB (8%)
Title : 1+1
Language : Ukrainian
Default : No
Forced : No
Джерело:
За доріжки від 1+1 та ICTV дякую п. Breniak, akon111, Sando7, omm
Особиста оцінка: нормальний


 Трекер:    Зареєстрований   

Завантажити / скачати фільм українською



відео для новачків



 Зареєстрований:   2020-06-29 17:51
 Розмір:   1.73 GB 
 Оцінка фільму:   7.8/10 (Голосів: 4)
   
knibe 
Частий відвідувач


З нами з: 18.12.13
Востаннє: 02.07.20
Повідомлень: 31

2020-06-30 16:52  
Arsenfpu написано:
Зиток

Збиток*

Ваш часовий пояс: GMT + 2 Години

Нова тема   Відповісти