БЕZ ОБМЕЖЕНЬ - Транзитна зона (2020) 1080p | Pop-Rock

Нові коментарі

Нова тема   Відповісти
Автор Повідомлення
sergiyko.5 
VIP


З нами з: 25.02.16
Востаннє: 11.07.20
Повідомлень: 3251

2020-06-29 11:26  
БЕZ ОБМЕЖЕНЬ - Транзитна зона (2020) 1080p | Pop-Rock


БЕZ ОБМЕЖЕНЬ - Транзитна зона (2020) 1080p | Pop-Rock

Стиль: Pop-Rock
Країна, місто: Україна, Київ
Режисер: Артем Григорян
Оператори: Арсен Пошотян, Володимир Вербовий, Ян Клаунінг, Олександр Дмитріев

Струнний квартет: Євгенія Дячук, Наталія Оніщук, Ольга Чернокондратенко, Ігор Андрієвський
Бек-вокал: Антоніна Вінник, Галина Бондаренко, Анастасія Дорошенко

Гiтара, клавіші: Iгор Рибар
Гiтара: Андрiй Радько
Бас-гітара: Олександр Адаменко
Барабани: Олексiй Бережний
Кларнет: Максим Луценко
Вокал: Сергiй Танчинець

Опис: У такий складний карантинний час, рок-гурт також не залишився осторонь і вирішив допомогти медикам, влаштувавши благодійний концерт. Місце для виступу вони обрали досить неординарне – ангар аеропорту, де ремонтують літаки. І назву концерт отримав досить символічну – «Транзитна зона».

Концерт відбувся без глядачів.


Тривалість: 01:16:23
Якість:

Відео:
кодек: розмір кадру: 1920 х 1080 бітрейт: 7800 кб/с
Аудіо: мова: українська кодек: 2.0 бітрейт: 160 кб/с [Stereo]
Треклист:

01 Буду з тобою
02 Листопад
03 Зорі запалали
04 Мільярди
05 Тону
06 Весь світ
07 Зима
08 Хто я
09 Моя земля
10 Хочеш
11 Без неї ніяк
12 Моя країна
13 Не мовчи
14 Без неї ніяк
15 Зорі запалали
Про файл:
General
Unique ID : 163885254061216505067590484565252863988 (0x7B4B26DDF00DA297959EF51EFE0B77F4)
Complete name : D:\Documents\Torrents\Rizne\БЕZ ОБМЕЖЕНЬ-Транзитна зона.1080p..
Format :
Format version : Version 4
File size : 4.25 GiB
Duration : 1 h 16 min
Overall bit rate : 7 963 kb/s
Movie name : rip by sergiyko
Encoded date : UTC 2020-06-29 08:07:05
Writing application : v47.0.0 ('Black Flag') 64-bit
Writing library : libebml v1.3.10 + v1.5.2
Cover : Yes
Attachments : cover.jpeg

Video
ID : 1
Format : AVC
Format/Info : Advanced Video Codec
Format profile : [email protected]
Format settings : CABAC / 6 Ref Frames
Format settings, CABAC : Yes
Format settings, Reference : 6 frames
Codec ID : V_MPEG4/ISO/AVC
Duration : 1 h 16 min
Bit rate : 7 800 kb/s
Width : 1 920 pixels
Height : 1 080 pixels
Display aspect ratio : 16:9
Frame rate mode : Constant
Frame rate : 25.000 FPS
Color space : YUV
Chroma subsampling : 4:2:0
Bit depth : 8 bits
Scan type : Progressive
Bits/(Pixel*Frame) : 0.150
Stream size : 4.16 GiB (98%)
Writing library : core 142 r2491 24e4fed
Encoding settings : cabac=1 / ref=6 / deblock=1:0:0 / analyse=0x3:0x113 / me=hex / subme=7 / psy=1 / psy_rd=1.00:0.00 / mixed_ref=1 / me_range=16 / chroma_me=1 / trellis=1 / 8x8dct=1 / cqm=0 / deadzone=21,11 / fast_pskip=1 / chroma_qp_offset=-2 / threads=12 / lookahead_threads=2 / sliced_threads=0 / nr=0 / decimate=1 / interlaced=0 / bluray_compat=0 / constrained_intra=0 / bframes=3 / b_pyramid=2 / b_adapt=1 / b_bias=0 / direct=1 / weightb=1 / open_gop=0 / weightp=2 / keyint=75 / keyint_min=7 / scenecut=0 / intra_refresh=0 / rc_lookahead=40 / rc=2pass / mbtree=1 / bitrate=7800 / ratetol=1.0 / qcomp=0.60 / qpmin=0 / qpmax=69 / qpstep=4 / cplxblur=20.0 / qblur=0.5 / ip_ratio=1.41 / aq=1:1.00
Language : Ukrainian
Default : Yes
Forced : No

Audio
ID : 2
Format : LC
Format/Info : Advanced Audio Codec Low Complexity
Codec ID : A_AAC-2
Duration : 1 h 16 min
Bit rate : 160 kb/s
Channel(s) : 2 channels
Channel layout : L R
Sampling rate : 48.0 kHz
Frame rate : 46.875 FPS (1024 SPF)
Compression mode : Lossy
Delay relative to video : -80 ms
Stream size : 87.4 MiB (2%)
Language : Ukrainian
Default : Yes
Forced : No

Menu
00:02:01.838 : uk:01 Буду з тобою
00:05:49.514 : uk:02 Листопад
00:09:37.567 : uk:03 Зорі запалали
00:14:53.437 : uk:04 Мільярди
00:18:33.263 : uk:05 Тону
00:22:36.143 : uk:06 Весь світ
00:25:37.099 : uk:07 Зима
00:29:11.823 : uk:08 Хто я
00:36:55.573 : uk:09 Моя земля
00:41:07.990 : uk:10 Хочеш
00:45:07.945 : uk:11 Без неї ніяк
00:52:35.031 : uk:12 Моя країна
01:00:35.996 : uk:13 Не мовчи
01:04:18.690 : uk:14 Без неї ніяк
01:11:43.472 : uk:15 Зорі запалали
Скріншоти:


Запис: sergiyko


Золотий реліз (завантажене не впливає на рейтинг)
 Трекер:    Зареєстрований   

Завантажити / скачати кліп українською



відео для новачків



 Зареєстрований:   2020-06-29 11:26
 Розмір:   4.25 GB 
 Оцінка кліпу:   8.2/10 (Голосів: 5)
   
Ваш часовий пояс: GMT + 2 Години

Нова тема   Відповісти