Парний удар / Sidekicks (1992) -AVC Ukr/Eng

Нові коментарі

Нова тема   Відповісти
Автор Повідомлення
Arsenfpu 
Відео Гуртом - фільмокрай
Відео Гуртом - фільмокрай


З нами з: 30.04.09
Востаннє: 08.08.20
Повідомлень: 7125

2020-06-29 00:31  
Парний удар / Sidekicks (1992) -AVC Ukr/Eng

Парний удар / Sidekicks (1992) -AVC Ukr/Eng


Жанр: екшн, пригодницький, комедія
Країна: США



Кінокомпанія: Gallery Films, Vision PDG
Режисер: Аарон Норріс
Актори: Чак Норріс, Бо Бріджес, Джонатан Брендіс, Мако, Джулія Ніксон-Соул, Джо Піскопо, Деніка МакКеллар, Джон Б'юкенен, Річард Молл, Герріт Грем, Денніс Берклі

Сюжет:
Беррі не користувався авторитетом у однокласників. По-перше, він не був фізично сильним через астму, яка мучить його страшними нападами. По-друге, духом теж був слабенький, не завжди наважуючись відповісти кривдникові. А по-третє, він був мрійником, стаючи в своїх мріях першим помічником Чака Норріса, борця за справедливість.


Тривалість: 01:41:05
Якість:
Відео:
кодек:
розмір кадру: 706 х 478
бітрейт: 2 389 кб/с

Аудіо # 1:
мова: українська
переклад: багатоголосий закадровий
кодек: 2.0
бітрейт: 192 кб/с

Аудіо # 2:
мова: англійська
переклад: оригінал
кодек: 2.0
бітрейт: 192 кб/с
Скріншоти












Про файл
General
Unique ID : 187039515474228692554150447398378277916 (0x8CB68017D359FD0D76B43CA054A00C1C)
Complete name : C:\Sidekicks (1992) [Ukr,Eng] -AVC [Hurtom].
Format :
Format version : Version 4 / Version 2
File size : 1.96 GiB
Duration : 1 h 41 min
Overall bit rate : 2 775 kb/s
Movie name : Парний удар / Sidekicks (1992)
Encoded date : UTC 2020-06-28 20:53:03
Writing application : v21.0.0 ('Tardigrades Will Inherit The Earth') 32-bit
Writing library : libebml v1.3.5 + v1.4.8
Cover : Yes
Attachments : cover.jpg

Video
ID : 1
Format : AVC
Format/Info : Advanced Video Codec
Format profile : [email protected]
Format settings, CABAC : Yes
Format settings, ReFrames : 16 frames
Codec ID : V_MPEG4/ISO/AVC
Duration : 1 h 41 min
Bit rate : 2 389 kb/s
Width : 706 pixels
Height : 478 pixels
Display aspect ratio : 4:3
Original display aspect rat : 4:3
Frame rate mode : Constant
Frame rate : 23.976 (24000/1001) FPS
Color space : YUV
Chroma subsampling : 4:2:0
Bit depth : 8 bits
Scan type : Progressive
Bits/(Pixel*Frame) : 0.295
Stream size : 1.69 GiB (86%)
Writing library : core 152 r2851kMod ba24899
Encoding settings : cabac=1 / ref=16 / deblock=1:-1:-1 / analyse=0x3:0x133 / me=umh / subme=11 / psy=1 / fade_compensate=0.00 / psy_rd=1.00:0.03 / mixed_ref=1 / me_range=48 / chroma_me=1 / trellis=2 / 8x8dct=1 / cqm=0 / deadzone=21,11 / fast_pskip=0 / chroma_qp_offset=-3 / threads=15 / lookahead_threads=2 / sliced_threads=0 / nr=0 / decimate=1 / interlaced=0 / bluray_compat=0 / constrained_intra=0 / bframes=8 / b_pyramid=2 / b_adapt=2 / b_bias=0 / direct=1 / weightb=1 / open_gop=0 / weightp=2 / keyint=240 / keyint_min=23 / scenecut=40 / intra_refresh=0 / rc_lookahead=60 / rc=crf / mbtree=0 / crf=17.5000 / qcomp=0.62 / qpmin=0 / qpmax=39 / qpstep=4 / vbv_maxrate=50000 / vbv_bufsize=62500 / crf_max=0.0 / nal_hrd=none / filler=0 / ip_ratio=1.40 / pb_ratio=1.30 / aq=2:1.00
Language : English
Default : Yes
Forced : No
Color range : Limited
Color primaries : BT.601 NTSC
Transfer characteristics : BT.601
Matrix coefficients : BT.601

Audio #1
ID : 2
Format : AC-3
Format/Info : Audio Coding 3
Mode extension : CM (complete main)
Format settings, Endianness : Big
Codec ID : A_AC3
Duration : 1 h 41 min
Bit rate mode : Constant
Bit rate : 192 kb/s
Channel(s) : 2 channels
Channel positions : Front: L R
Sampling rate : 48.0 kHz
Frame rate : 31.250 FPS (1536 spf)
Compression mode : Lossy
Stream size : 139 MiB (7%)
Title : amc
Language : Ukrainian
Default : Yes
Forced : Yes

Audio #2
ID : 3
Format : AC-3
Format/Info : Audio Coding 3
Mode extension : CM (complete main)
Format settings, Endianness : Big
Codec ID : A_AC3
Duration : 1 h 41 min
Bit rate mode : Constant
Bit rate : 192 kb/s
Channel(s) : 2 channels
Channel positions : Front: L R
Sampling rate : 48.0 kHz
Frame rate : 31.250 FPS (1536 spf)
Compression mode : Lossy
Stream size : 139 MiB (7%)
Language : English
Default : No
Forced : No

Menu
00:00:00.000 : en:Chapter 1
00:12:51.680 : en:Chapter 2
00:27:20.080 : en:Chapter 3
00:39:30.680 : en:Chapter 4
00:52:36.920 : en:Chapter 5
01:01:12.760 : en:Chapter 6
01:11:37.280 : en:Chapter 7
01:29:10.280 : en:Chapter 8
Джерело:
Особиста оцінка: не дивився


Срібний реліз (на рейтинг впливає 50% завантаженого)
 Трекер:    Зареєстрований   

Завантажити / скачати фільм українською



відео для новачків



 Зареєстрований:   2020-06-29 00:31
 Розмір:   1.96 GB 
 Оцінка фільму:   8.5/10 (Голосів: 6)
   
Ваш часовий пояс: GMT + 2 Години

Нова тема   Відповісти