Врятувати невдаху / Saving Silverman (2001) 720p Ukr/Eng | Sub Ukr/Eng

Нові коментарі

Нова тема   Відповісти
Автор Повідомлення
Anonymous 







2020-06-28 14:16  
Врятувати невдаху / Saving Silverman (2001) 720p Ukr/Eng | Sub Ukr/Eng

Врятувати невдаху / Saving Silverman (2001) 720p Ukr/Eng | Sub Ukr/Eng


Жанр: комедія, романтичний, кримінал
Країна: США, Австралія



Кінокомпанія: Columbia Pictures Corporation, Village Roadshow Pictures, NPV Entertainment
Режисер: Денніс Дуган (Dennis Dugan)
Актори: Стів Зан (Steve Zahn), Джек Блек (Jack Black), Джейсон Біггз (Jason Biggs), Аманда Піт (Amanda Peet), Аманда Детмер (Amanda Detmer), Р. Лі Ермі (R. Lee Ermey), Ніл Даймонд (Neil Diamond)

Сюжет:
Друзі допоможуть. Навіть коли їх про це не просять. Коли Джей Ді і Вейн виявляють, що їх добрий друг Даррен Сільверман зібрався зробити найжахливішу помилку у своєму житті - піти до вівтаря зі стервозною красунею Джудіт, вони тут же замишляють змову порятунку свого невдачливого приятеля з лап злої і амбітної дівчини.

До нещастя, вони самі не можуть похвалитися вмінням все робити правильно і без осічок, тому не знаходять нічого кращого, як зіграти в Джеймса Бонда і викрасти Джудіт. А в її відсутність звести Даррена з його колишньою шкільною любов'ю, милою і доброю Сенді.

Божевільний план. Але, можливо, саме божевільні ідеї і повинні спрацьовувати в таких випадках? І ось, дуже ризикована операція "Врятувати від нареченої" починається!...


Тривалість: 01:36:21
Якість: 720p
Відео:
кодек:
розмір кадру: 1280х720
бітрейт: 3 720 кб/с

Аудіо # 1:
мова: українська
переклад: двоголосий закадровий
кодек: 2.0 (з 5.1)
бітрейт: 192 кб/с

Аудіо # 2:
мова: англійська
переклад: оригінал
кодек: 5.1
бітрейт: 448 кб/с

Субтитри:
мова: українська
тип: програмні (м'які)
формат: *.srt

Субтитри:
мова: англійська
тип: програмні (м'які)
формат: *.srt
Info
General
Unique ID : 176352322198561892954706983643192130492 (0x84AC38C8702B53ABA4521A0FF3A27BBC)
Complete name : E:\Toloka\2020\Saving Silverman (2001) 720p.
Format :
Format version : Version 4
File size : 2.99 GiB
Duration : 1 h 36 min
Overall bit rate : 4 448 kb/s
Encoded date : UTC 2020-06-28 11:10:43
Writing application : v6.1.0 ('Old Devil') built on Mar 4 2013 09:10:42
Writing library : libebml v1.3.0 + v1.4.0

Video
ID : 1
Format : AVC
Format/Info : Advanced Video Codec
Format profile : [email protected]
Format settings : 2 Ref Frames
Format settings, CABAC : No
Format settings, Reference : 2 frames
Codec ID : V_MPEG4/ISO/AVC
Duration : 1 h 36 min
Bit rate : 3 720 kb/s
Width : 1 280 pixels
Height : 720 pixels
Display aspect ratio : 16:9
Frame rate mode : Constant
Frame rate : 23.976 FPS
Color space : YUV
Chroma subsampling : 4:2:0
Bit depth : 8 bits
Scan type : Progressive
Bits/(Pixel*Frame) : 0.168
Stream size : 2.50 GiB (84%)
Language : English
Default : Yes
Forced : No
Color range : Limited
Color primaries : BT.709
Transfer characteristics : BT.709
Matrix coefficients : BT.709
Duration_Source : General_Duration

Audio #1
ID : 2
Format : AC-3
Format/Info : Audio Coding 3
Commercial name : Dolby Digital
Codec ID : A_AC3
Duration : 1 h 36 min
Bit rate mode : Constant
Bit rate : 192 kb/s
Channel(s) : 2 channels
Channel layout : L R
Sampling rate : 48.0 kHz
Frame rate : 31.250 FPS (1536 SPF)
Compression mode : Lossy
Stream size : 132 MiB (4%)
Title : UKR (Inter)
Language : Ukrainian
Service kind : Complete Main
Default : Yes
Forced : Yes
Duration_Source : General_Duration

Audio #2
ID : 3
Format : AC-3
Format/Info : Audio Coding 3
Commercial name : Dolby Digital
Codec ID : A_AC3
Duration : 1 h 36 min
Bit rate mode : Constant
Bit rate : 448 kb/s
Channel(s) : 6 channels
Channel layout : L R C LFE Ls Rs
Sampling rate : 48.0 kHz
Frame rate : 31.250 FPS (1536 SPF)
Compression mode : Lossy
Stream size : 309 MiB (10%)
Title : ENG
Language : English
Service kind : Complete Main
Default : No
Forced : No
Duration_Source : General_Duration

Text #1
ID : 4
Format : UTF-8
Codec ID : S_TEXT/UTF8
Codec ID/Info : UTF-8 Plain Text
Title : UKR by urij546724
Language : Ukrainian
Default : Yes
Forced : No

Text #2
ID : 5
Format : UTF-8
Codec ID : S_TEXT/UTF8
Codec ID/Info : UTF-8 Plain Text
Title : ENG
Language : English
Default : No
Forced : No

Menu
00:00:00.000 : en:Start
00:07:16.000 : en:Diamonds In The Rough
00:10:10.000 : en:Darren Meets Satan
00:16:39.000 : en:The Hall
00:18:01.000 : en:Sunday Ritual
00:23:02.000 : en:Winner takes Darren
00:25:07.000 : en:"Notice anything weird?"
00:27:17.000 : en:Sandy returns
00:30:00.000 : en:"Die, replacement friend!"
00:32:47.000 : en:Kidnapped!
00:39:00.000 : en:Nun-sense
00:42:15.000 : en:Incinerated beyond recognition
00:44:47.000 : en:Coach's advice
00:46:50.000 : en:"Snuff her!"
00:48:43.000 : en:Comforting Darren
00:51:08.000 : en:Therapy Session
00:51:54.000 : en:Saved by the belle
00:55:33.000 : en:Escape of the killer goat
01:00:48.000 : en:Second thoughts
01:04:58.000 : en:Negative reinforcement
01:09:46.000 : en:Why Darren
01:11:11.000 : en:Seduction of the Innocent
01:13:38.000 : en:Crashing with the Warbirds
01:16:54.000 : en:Return of the Living Dead
01:21:31.000 : en:Prison break
01:23:56.000 : en:"We got him!"
01:26:21.000 : en:Crashing a wedding
01:29:21.000 : en:Happy ending credits
Скріншоти









За субтитри подяка п. urij546724
За доріжку подяка. п.: dvorsky, urij546724
Особиста подяка пану denixx за надану матеріальну допомогу на підтримку цього і майбутніх релізів.
Джерело:


Срібний реліз (на рейтинг впливає 50% завантаженого)
 Трекер:    Зареєстрований   

Завантажити / скачати фільм українською



відео для новачків



 Зареєстрований:   2020-06-28 14:16
 Розмір:   2.99 GB 
 Оцінка фільму:   9/10 (Голосів: 3)
   
Ваш часовий пояс: GMT + 2 Години

Нова тема   Відповісти