Галактика Юрського періоду / Jurassic Galaxy (2018) AVC

Нові коментарі

Нова тема   Відповісти
Автор Повідомлення
Arsenfpu 
Відео Гуртом - фільмокрай
Відео Гуртом - фільмокрай


З нами з: 30.04.09
Востаннє: 05.08.20
Повідомлень: 7115

2020-06-28 12:26  
Галактика Юрського періоду / Jurassic Galaxy (2018) AVC

Галактика Юрського періоду / Jurassic Galaxy (2018) AVC


Жанр: екшн, пригодницький, фантастика
Країна: США



Кінокомпанія: Dual Visions
Режисер: Джеймс Конделік, Джон Конделік
Актори: Райан Баддс, Даг Берч, Ерік Пол Еріксон, Джонатан Нейшн, Френкі Рей, Тамара Стаєр, Медісон Уест Гілл

Сюжет:
У найближчому майбутньому корабель дослідників космосу зазнав аварії. Приземлившись на невідомій людству планеті, команді доведеться поглянути в обличчя своїм найгіршим страхам, оскільки на планеті живуть не хто інші, як жахливі динозаври.


Тривалість: 01:15:14
Якість:
Відео:
кодек:
розмір кадру: 720 х 304
бітрейт: 1 800 кб/с

Аудіо:
мова: українська
переклад: багатоголосий закадровий
кодек: 2.0
бітрейт: 192 кб/с
Скріншоти












Про файл
General
Unique ID : 44139689133216070489091236673346747048 (0x2134FEB20349E36BF92645539F163AA8)
Complete name : C:\Jurassic Galaxy (2018) AVC [Hurtom].
Format :
Format version : Version 4 / Version 2
File size : 1.04 GiB
Duration : 1 h 15 min
Overall bit rate : 1 977 kb/s
Movie name : Галактика Юрського періоду / Jurassic Galaxy (2018)
Encoded date : UTC 2020-06-28 09:04:45 / UTC 2019-06-27T14:26:11Z
Writing application : v21.0.0 ('Tardigrades Will Inherit The Earth') 32-bit
Writing library : libebml v1.3.5 + v1.4.8 / Lavf55.12.0
Cover : Yes
Attachments : cover.jpg

Video
ID : 1
Format : AVC
Format/Info : Advanced Video Codec
Format profile : [email protected]
Format settings, CABAC : Yes
Format settings, ReFrames : 4 frames
Codec ID : V_MPEG4/ISO/AVC
Duration : 1 h 15 min
Bit rate : 1 800 kb/s
Width : 720 pixels
Height : 304 pixels
Display aspect ratio : 2.35:1
Frame rate mode : Constant
Frame rate : 23.976 (24000/1001) FPS
Color space : YUV
Chroma subsampling : 4:2:0
Bit depth : 8 bits
Scan type : Progressive
Bits/(Pixel*Frame) : 0.343
Stream size : 940 MiB (88%)
Writing library : core 142 r2479 dd79a61
Encoding settings : cabac=1 / ref=1 / deblock=1:0:0 / analyse=0x3:0x3 / me=dia / subme=1 / psy=1 / psy_rd=1.00:0.00 / mixed_ref=0 / me_range=16 / chroma_me=1 / trellis=0 / 8x8dct=1 / cqm=0 / deadzone=21,11 / fast_pskip=1 / chroma_qp_offset=0 / threads=24 / lookahead_threads=2 / sliced_threads=0 / nr=0 / decimate=1 / interlaced=0 / bluray_compat=0 / constrained_intra=0 / bframes=3 / b_pyramid=2 / b_adapt=1 / b_bias=0 / direct=1 / weightb=1 / open_gop=0 / weightp=1 / keyint=240 / keyint_min=24 / scenecut=40 / intra_refresh=0 / rc_lookahead=0 / rc=abr / mbtree=0 / bitrate=1800 / ratetol=1.0 / qcomp=0.60 / qpmin=0 / qpmax=69 / qpstep=4 / vbv_maxrate=62500 / vbv_bufsize=78125 / nal_hrd=none / filler=0 / ip_ratio=1.40 / pb_ratio=1.30 / aq=1:1.00
Default : Yes
Forced : No
Color range : Limited
Color primaries : BT.709
Transfer characteristics : BT.709
Matrix coefficients : BT.709
Statistics Tags Issue : v21.0.0 ('Tardigrades Will Inherit The Earth') 32-bit 2020-06-28 09:04:45 / v21.0.0 ('Tardigrades Will Inherit The Earth') 32-bit 2020-06-28 09:04:45 / UTC 2019-06-27T14:26:11Z
FromStats_BitRate : 1783153
FromStats_Duration : 01:15:14.594000000
FromStats_FrameCount : 108242
FromStats_StreamSize : 1006276909

Audio
ID : 2
Format : AC-3
Format/Info : Audio Coding 3
Mode extension : CM (complete main)
Format settings, Endianness : Big
Codec ID : A_AC3
Duration : 1 h 15 min
Bit rate mode : Constant
Bit rate : 192 kb/s
Channel(s) : 2 channels
Channel positions : Front: L R
Sampling rate : 48.0 kHz
Frame rate : 31.250 FPS (1536 spf)
Compression mode : Lossy
Delay relative to video : -83 ms
Stream size : 103 MiB (10%)
Title : 2+2
Default : Yes
Forced : No
Statistics Tags Issue : v21.0.0 ('Tardigrades Will Inherit The Earth') 32-bit 2020-06-28 09:04:45 / v21.0.0 ('Tardigrades Will Inherit The Earth') 32-bit 2020-06-28 09:04:45 / UTC 2019-06-27T14:26:11Z
FromStats_BitRate : 192000
FromStats_Duration : 01:15:14.688000000
FromStats_FrameCount : 141084
FromStats_StreamSize : 108352512

Menu
00:00:00.000 : :Chapter 1
00:04:03.618 : :Chapter 2
00:11:57.883 : :Chapter 3
00:21:14.648 : :Chapter 4
00:28:42.762 : :Chapter 5
00:37:47.139 : :Chapter 6
00:43:17.428 : :Chapter 7
00:48:58.810 : :Chapter 8
00:57:58.391 : :Chapter 9
01:03:54.372 : :Chapter 10
01:08:41.826 : :Chapter 11
01:12:56.205 : :Chapter 12
Джерело:
За запис з ТБ дякую пану Bohdan237
Особиста оцінка: не дивився


 Трекер:    Зареєстрований   

Завантажити / скачати фільм українською



відео для новачків



 Зареєстрований:   2020-06-28 12:26
 Розмір:   1.04 GB 
 Оцінка фільму:   7.3/10 (Голосів: 9)
   
Ваш часовий пояс: GMT + 2 Години

Нова тема   Відповісти