Дельфін Берні 2 / Bernie the Dolphin 2 (2019) 720p Ukr/Eng

Нові коментарі

Нова тема   Відповісти
Автор Повідомлення
Anonymous 







2020-06-28 08:09  
Дельфін Берні 2 / Bernie the Dolphin 2 (2019) 720p Ukr/Eng

Дельфін Берні 2 / Bernie the Dolphin 2 (2019) 720p Ukr/Eng


Жанр: пригодницький, комедія, сімейний
Країна: Канада, США



Кінокомпанія: AIC Studios, Digital Caviar, Fairway Film Alliance, Magnolia Financial Group
Режисер: Кірк Харріс
Актори: Лола Султан, Патрік Малдун, Кевін Сорбо, Логан Аллен, Томмі Роуз, Вінсент Де Пол, Дахлія Леголт, Лілі Кардон, Дарла Делгадо, Ріки Уейн

Сюжет:
У Флориді настало літо, а разом з ним і канікули. Герої мають намір провести його з задоволенням і користю. Кевін знімає відео і записує підкасти, а Холлі працює помічником в океанаріумі, де, до речі, з'явився дельфін-новачок.
Раптово дельфін Берні повертається. Також виходить з в'язниці їх старий ворог Уїнстон. Хлопцям за допомогою свого вірного друга належить зірвати підступний план помсти.


Тривалість: 01:38:32
Якість: 720p
Відео:
кодек:
розмір кадру: 1280x544
бітрейт: 3500 кб/с

Аудіо # 1:
мова: українська
переклад: багатоголосий закадровий
кодек: 2.0
бітрейт: 192 кб/с

Аудіо # 2:
мова: англійська
переклад: оригінал
кодек: 5.1
бітрейт: 768 кб/с
Info
General
Unique ID : 187232673439232679814402677433590531268 (0x8CDBB384197D7BA2B2DA366BC692C4C4)
Complete name : E:\Toloka\2020\Bernie The Dolphin 2 (2019) 720p.
Format :
Format version : Version 4
File size : 3.07 GiB
Duration : 1 h 38 min
Overall bit rate : 4 460 kb/s
Encoded date : UTC 2020-06-28 05:05:14
Writing application : v6.1.0 ('Old Devil') built on Mar 4 2013 09:10:42
Writing library : libebml v1.3.0 + v1.4.0

Video
ID : 1
Format : AVC
Format/Info : Advanced Video Codec
Format profile : [email protected]
Format settings : CABAC / 12 Ref Frames
Format settings, CABAC : Yes
Format settings, Reference : 12 frames
Codec ID : V_MPEG4/ISO/AVC
Duration : 1 h 38 min
Bit rate : 3 500 kb/s
Width : 1 280 pixels
Height : 544 pixels
Display aspect ratio : 2.35:1
Frame rate mode : Constant
Frame rate : 23.976 (24000/1001) FPS
Color space : YUV
Chroma subsampling : 4:2:0
Bit depth : 8 bits
Scan type : Progressive
Bits/(Pixel*Frame) : 0.210
Stream size : 2.35 GiB (76%)
Writing library : core 152 r2851 ba24899
Encoding settings : cabac=1 / ref=12 / deblock=1:-3:-2 / analyse=0x3:0x113 / me=umh / subme=10 / psy=1 / psy_rd=1.00:0.10 / mixed_ref=1 / me_range=32 / chroma_me=1 / trellis=2 / 8x8dct=1 / cqm=0 / deadzone=21,11 / fast_pskip=0 / chroma_qp_offset=-3 / threads=6 / lookahead_threads=1 / sliced_threads=0 / nr=0 / decimate=0 / interlaced=0 / bluray_compat=0 / constrained_intra=0 / bframes=12 / b_pyramid=2 / b_adapt=2 / b_bias=0 / direct=3 / weightb=1 / open_gop=0 / weightp=2 / keyint=240 / keyint_min=23 / scenecut=40 / intra_refresh=0 / rc=2pass / mbtree=0 / bitrate=3500 / ratetol=1.0 / qcomp=0.60 / qpmin=0 / qpmax=69 / qpstep=4 / cplxblur=20.0 / qblur=0.5 / ip_ratio=1.40 / pb_ratio=1.30 / aq=3:1.00
Language : English
Default : Yes
Forced : No
Color range : Limited
Color primaries : BT.709
Transfer characteristics : BT.709
Matrix coefficients : BT.709
Duration_Source : General_Duration

Audio #1
ID : 2
Format : AC-3
Format/Info : Audio Coding 3
Commercial name : Dolby Digital
Codec ID : A_AC3
Duration : 1 h 38 min
Bit rate mode : Constant
Bit rate : 192 kb/s
Channel(s) : 2 channels
Channel layout : L R
Sampling rate : 48.0 kHz
Frame rate : 31.250 FPS (1536 SPF)
Compression mode : Lossy
Stream size : 135 MiB (4%)
Title : UKR (AMC)
Language : Ukrainian
Service kind : Complete Main
Default : Yes
Forced : Yes
Duration_Source : General_Duration

Audio #2
ID : 3
Format :
Format/Info : Digital Theater Systems
Codec ID : A_DTS
Duration : 1 h 38 min
Bit rate mode : Constant
Bit rate : 768 kb/s
Channel(s) : 6 channels
Channel layout : C L R Ls Rs LFE
Sampling rate : 48.0 kHz
Frame rate : 93.750 FPS (512 SPF)
Bit depth : 16 bits
Compression mode : Lossy
Stream size : 541 MiB (17%)
Language : English
Default : No
Forced : No
Duration_Source : General_Duration

Menu
00:00:00.000 : en:00:00:00.000
00:04:45.327 : en:00:04:45.327
00:16:41.250 : en:00:16:41.250
00:27:47.291 : en:00:27:47.291
00:34:19.975 : en:00:34:19.975
00:40:32.805 : en:00:40:32.805
00:49:41.562 : en:00:49:41.562
01:02:12.270 : en:01:02:12.270
01:11:11.267 : en:01:11:11.267
01:15:12.216 : en:01:15:12.216
01:26:30.685 : en:01:26:30.685
01:34:40.675 : en:01:34:40.675
Скріншоти







За запис звуку з ТБ дякуємо пану Krigg070
Особиста подяка пану denixx за надану матеріальну допомогу на підтримку цього і майбутніх релізів.

Джерело:


 Трекер:    Зареєстрований   

Завантажити / скачати фільм українською



відео для новачків



 Зареєстрований:   2020-06-28 08:09
 Розмір:   3.07 GB 
 Оцінка фільму:   10/10 (Голосів: 3)
   
Інші релізи
   Дельфін Берні 2 / Bernie the Dolphin 2 (2019) AVC Ukr/Eng Arsenfpu  17 / 0   1.85 GB   2020-09-19 21:27 
Ваш часовий пояс: GMT + 2 Години

Нова тема   Відповісти