Пітьма (Сезон 1) / Dark (Season 1) (2017) UHD 2160p 4K Ukr/Ger | Sub Eng/Ger

Нові коментарі

Нова тема   Відповісти
Автор Повідомлення
RoMeL 
Відео Гуртом - підтримка та поширення
Відео Гуртом - підтримка та поширення


З нами з: 09.07.08
Востаннє: 09.07.20
Повідомлень: 117

2020-06-28 04:54  
1 сезон: AVC | 1080p | 4K

2 сезон: AVC | 1080p | 4K

Пітьма (Сезон 1) / Dark (Season 1) (2017) UHD 2160p 4K Ukr/Ger | Sub Eng/Ger



Жанр: фантастика, драма, трилер
Країна: Німеччина, США



Кінокомпанія: Netflix, W&B Television
Режисери/творці: Баран бо Одар, Янт'є Фрізе
Актори: Луіс Гофманн, Олівер Мазуччі, Кароліна Айчгорн, Йордіс Трібель, Майя Шьоне, Штефан Кампвірт, Андреас Пітчманн, Дебора Кауфманн, Татя Зайбт та інші.

Сюжет:
Дія серіалу розгортається у вигаданому містечку Вінден, що в Німеччині, і розповідає історію чотирьох сімей, історії яких тісно переплітаються одна з одною, а також з минулим, сьогоденням і майбутнім Віндена.


Перекладено та озвучено студією НеЗупиняйПродакшн

Тривалість: 1 серія: ~50 хв. (цілком серій: 10)
Перелік серій
1. Таємниці / Geheimnisse
2. Брехня / Lügen
3. Минуле і майбутнє / Gestern und Heute
4. Подвійні життя / Doppelleben
5. Правда / Wahrheiten
6. Sic Mundus Creatus Est
7. Перехід / Kreuzwege
8. Що посієш – те й пожнеш / Was man sät, das wird man ernten
9. Усе зараз / Alles ist Jetzt
10. Альфа та омега / Alpha und Omega
Якість: 2160p
Відео:
кодек:
розмір кадру: 3840 х 1920
бітрейт: ~28,5 Мбіт/сек

Аудіо # 1:
мова: українська
переклад: професійний багатоголосий закадровий
кодек: 5.1
бітрейт: 448 кб/с

Озвучено студією НеЗупиняйПродакшн


Аудіо # 2:
мова: німецька
переклад: оригінал
кодек: E- 5.1 + Atmos
бітрейт: 448 кб/с

Субтитри # 1:
мова: англійська
тип: програмні (м'які)
формат: *.srt

Субтитри # 2:
мова: німецька
тип: програмні (м'які)
формат: *.srt
Info

Код:
General
Unique ID                                : 34796538790579871074877223357076219056 (0x1A2D91D16C1D0BE97D72FD0F437C24B0)
Complete name                            : /Volumes/Elements/Download/SHOW/Dark.S01.2017..2160p.[Ukr.Ger].[Hurtom]/Dark.S01E01.2017..2160p.[Ukr.Ger].[Hurtom].
Format                                   :
Format version                           : Version 4
File size                                : 10.6 GiB
Duration                                 : 51mn 30s
Overall bit rate                         : 29.4 Mbps
Movie name                               : Dark.S01E01.2017..2160p.[Ukr.Ger].[Hurtom]
Encoded date                             : UTC 2020-06-25 18:46:09
Writing application                      : v47.0.0 ('Black Flag') 64-bit
Writing library                          : libebml v1.3.10 + v1.5.2
Cover                                    : Yes
Attachments                              : cover.jpg

Video
ID                                       : 1
Format                                   : AVC
Format/Info                              : Advanced Video Codec
Format profile                           : [email protected]
Format settings                          : CABAC / 6 Ref Frames
Format settings, CABAC                   : Yes
Format settings, ReFrames                : 6 frames
Codec ID                                 : V_MPEG4/ISO/AVC
Duration                                 : 51mn 30s
Bit rate                                 : 28.5 Mbps
Width                                    : 3 840 pixels
Height                                   : 1 920 pixels
Display aspect ratio                     : 2.000
Frame rate mode                          : Constant
Frame rate                               : 24.000 fps
Color space                              : YUV
Chroma subsampling                       : 4:2:0
Bit depth                                : 8 bits
Scan type                                : Progressive
Bits/(Pixel*Frame)                       : 0.161
Stream size                              : 10.3 GiB (97%)
Writing library                          : core 152 r2851kMod ba24899
Encoding settings                        : cabac=1 / ref=6 / deblock=1:-3:-3 / analyse=0x3:0x133 / me=umh / subme=10 / psy=1 / fade_compensate=0.00 / psy_rd=1.00:0.00 / mixed_ref=1 / me_range=48 / chroma_me=1 / trellis=2 / 8x8dct=1 / cqm=0 / deadzone=21,11 / fast_pskip=0 / chroma_qp_offset=-2 / threads=12 / lookahead_threads=2 / sliced_threads=0 / nr=0 / decimate=0 / interlaced=0 / bluray_compat=0 / constrained_intra=0 / bframes=8 / b_pyramid=2 / b_adapt=2 / b_bias=0 / direct=3 / weightb=1 / open_gop=0 / weightp=2 / keyint=250 / keyint_min=24 / scenecut=40 / intra_refresh=0 / rc=crf / mbtree=0 / crf=18.0000 / qcomp=0.60 / qpmin=0 / qpmax=69 / qpstep=4 / ip_ratio=1.30 / pb_ratio=1.20 / aq=3:0.80
Language                                 : English
Default                                  : Yes
Forced                                   : No

Audio #1
ID                                       : 2
Format                                   : AC-3
Format/Info                              : Audio Coding 3
Commercial name                          : Dolby Digital
Codec ID                                 : A_AC3
Duration                                 : 51mn 16s
Bit rate mode                            : Constant
Bit rate                                 : 448 Kbps
Channel(s)                               : 6 channels
Channel layout                           : L R C LFE Ls Rs
Sampling rate                            : 48.0 KHz
Frame rate                               : 31.250 fps (1536 SPF)
Compression mode                         : Lossy
Stream size                              : 164 MiB (2%)
Title                                    : Українська (НеЗупиняйПродакшн)
Language                                 : Ukrainian
Service kind                             : Complete Main
Default                                  : Yes
Forced                                   : No

Audio #2
ID                                       : 3
Format                                   : E-AC-3 JOC
Format/Info                              : Enhanced AC-3 with Joint Object Coding
Commercial name                          : Dolby Digital Plus with Dolby Atmos
Codec ID                                 : A_EAC3
Duration                                 : 51mn 16s
Bit rate mode                            : Constant
Bit rate                                 : 448 Kbps
Channel(s)                               : 6 channels
Channel layout                           : L R C LFE Ls Rs
Sampling rate                            : 48.0 KHz
Frame rate                               : 31.250 fps (1536 SPF)
Compression mode                         : Lossy
Stream size                              : 164 MiB (2%)
Language                                 : German
Service kind                             : Complete Main
Default                                  : No
Forced                                   : No
Complexity index                         : 16
Number of dynamic objects                : 15
Bed channel count                        : 1 channel
Bed channel configuration                : LFE

Text #1
ID                                       : 4
Format                                   : UTF-8
Codec ID                                 : S_TEXT/UTF8
Codec ID/Info                            : UTF-8 Plain Text
Duration                                 : 50mn 57s
Bit rate                                 : 40 bps
Count of elements                        : 468
Stream size                              : 15.0 KiB (0%)
Language                                 : English
Default                                  : No
Forced                                   : No

Text #2
ID                                       : 5
Format                                   : UTF-8
Codec ID                                 : S_TEXT/UTF8
Codec ID/Info                            : UTF-8 Plain Text
Duration                                 : 47mn 54s
Bit rate                                 : 49 bps
Count of elements                        : 533
Stream size                              : 17.4 KiB (0%)
Language                                 : German
Default                                  : No
Forced                                   : No
Скріншоти






Джерело: &
Особиста оцінка: 10 - без зайвих вагань рекомендую всім!


Авторський реліз (завантажувати можна без реєстрації)
 Трекер:    Зареєстрований   

Завантажити / скачати серіал українською



відео для новачків



 Зареєстрований:   2020-06-28 04:54
 Розмір:   98.68 GB 
 Оцінка серіалу:   9.2/10 (Голосів: 9)
   
HelgiEagle 
Новенький


З нами з: 08.04.18
Востаннє: 30.06.20
Повідомлень: 5

2020-06-29 21:53  
Щойно додивився останню серію заключного сезону третього, і тільки тоді дізнався про що взагалі були ці два попередні сезони. Просто взрив мозгів. Геніальний шедевр! 10/10 Однозначно рекомендую до перегляду.
Markycool 
Новенький


З нами з: 26.09.09
Востаннє: 08.07.20
Повідомлень: 4

2020-06-29 23:42  
є шанси, що НеЗупиняйПродакшн будуть озвучувати третій сезон?
RoMeL 
Відео Гуртом - підтримка та поширення
Відео Гуртом - підтримка та поширення


З нами з: 09.07.08
Востаннє: 09.07.20
Повідомлень: 117

2020-06-30 00:02  
Markycool написано:
є шанси, що НеЗупиняйПродакшн будуть озвучувати третій сезон?

шанси дуже великі, зараз йде збір коштів на озвучення другого сезону - https://toloka.to/t108414 , а після цього думаю буде збір на третій

Roman.Kushnaryov 
Новенький


З нами з: 06.03.15
Востаннє: 08.07.20
Повідомлень: 21

2020-06-30 21:10  
а є шанси, щоб залили легші файли, бо оце по 10 гігів - це ж трохи занадто...
tilda4334 
VIP


З нами з: 15.08.14
Востаннє: 09.07.20
Повідомлень: 955

2020-06-30 22:30  
Roman.Kushnaryov написано:
а є шанси, щоб залили легші файли, бо оце по 10 гігів - це ж трохи занадто...

1 сезон: AVC | 1080p

Це все звісно легко знаходиться пошуком, але і в шапку можна було б додати.

RoMeL 
Відео Гуртом - підтримка та поширення
Відео Гуртом - підтримка та поширення


З нами з: 09.07.08
Востаннє: 09.07.20
Повідомлень: 117

2020-07-03 10:50  
Додав в шапку всі посилання
Антон Негода 
Новенький


З нами з: 24.06.14
Востаннє: 09.07.20
Повідомлень: 9

2020-07-08 06:12  
Країна зйомок та актори утримували мене від перегляду цього серіалу і от що хочу сказати - ніколи зроду так не помилявся.
Zon 
Новенький


З нами з: 02.03.10
Востаннє: 09.07.20
Повідомлень: 22

2020-07-08 11:33  
Антон Негода
Потрібно дивитись яка кіностудія знімала фільм, а тут нетфлікс

Антон Негода 
Новенький


З нами з: 24.06.14
Востаннє: 09.07.20
Повідомлень: 9

2020-07-08 16:20  
Zon
Очікував цей коментар.
Нетфлікс аж далеко не є показником якості, туди завозять як повний непотріб, типу Відьмака, Трої, так і мало не шедеври.

Ваш часовий пояс: GMT + 2 Години

Нова тема   Відповісти