Королівська академія / Regal Academy (Сезон 1) (2016) 1080p Ukr/Eng

Нові коментарі

Нова тема   Відповісти
Останній раз роздавалося predators (2021-04-17)
Автор Повідомлення
sergiyko.5 
Забанено
Забанено


З нами з: 25.02.16
Востаннє: 29.10.20
Повідомлень: 3648

2020-06-27 23:21  
Королівська академія / Regal Academy (Сезон 1) (2016) 1080p Ukr/Eng


Королівська академія / Regal Academy (Сезон 1) (2016) 1080p Ukr/Eng

Жанр: комедія, фентезі
Країна: Італія
Кінокомпанія: Студія Rainbow
Актори/ролі озвучують: Брітні Лі Гамільтон (Brittney Lee Hamilton), Елісон Лег Розенфілд (Alyson Leigh Rosenfeld), Пірлаг Естор (Pierluigi Astore)

Сюжет:
Усі знають героїв відомих казок, але ви, можливо, не підозрювали, що з ними трапилося щось зовсім особливе — вони постаріли!

Аби передати свій досвід наступним поколінням, вони об'єднуються і відкривають школу... Королівську Академію!

Чи буде нове покоління казкових героїв задовольнятися славою своїх сімей? Або їх чекає власна захоплива пригода?

Роуз — звичайна школярка, яка найбільше в світі любить купувати модні речі. Але в один прекрасний день її життя повністю змінилося, адже вона отримала запрошення на навчання в Королівській Академії. Виявляється, Роуз — онучка самої Попелюшки. Тепер вона дружить із нащадками казкових героїв, які володіють особливими здібностями. Учнів Королівської Академії чекають складні випробування, несподівані зустрічі, дивовижні відкриття і неймовірно веселі пригоди.




Тривалість: 1 серія: 23:35 (цілком серій: 26)
Якість:

Відео: кодек: розмір кадру: 1920 х 1080 бітрейт: 4000 кб/с
Аудіо 1: мова: українська переклад: професійний дубльований кодек: бітрейт: 192 кб/с
Озвучення:
Аудіо 2: мова: англійська переклад: оригінал кодек: бітрейт: 192 кб/с
Перелік серій
01.A School for Fairy Tales
02.The Great Dragon Race
03.The Swan in Swamp Lake
04.Astoria and the Beanstalk
05.Fairy Tale Wedding
06.Mystery at Cinderella Castle
07.The Pea Princess' Granddaughter
08.The Revenge
09.Attack of the Shortbread Witch
10.Rose's Fairy Tale Collection
11.The Bad Wolf's Great Fall
12.Pumpkins and Dragons
13.The Grand Ball
14.The Legendary IronFan
15.Rose and the Dragon King
16.Song of the Sea Witch
17.Hawk and the Poisoned Apples
18.Fairy Tales on Earth
19.Hair Curse
20.The Parents' Day
21.Monkey Magic
22.Flowerpocalypse
23.Swan Dancing with the Stars
24.The Dragon Duel
25.Fall of the Guardians
26.Vicky the Villain
Про файл:
General
Unique ID : 188444128119030605983582187154181575657 (0x8DC504D7DD70F6A95112DAF96CE5D3E9)
Complete name : D:\Documents\Torrents\MULTSER_2\Regal Academy S01 1080p \S01E01.A School for Fairy Tales.1080p..
Format :
Format version : Version 4
File size : 734 MiB
Duration : 23 min 43 s
Overall bit rate : 4 328 kb/s
Movie name : Regal Academy S01 1080p by sergiyko
Encoded date : UTC 2020-06-27 19:55:04
Writing application : v47.0.0 ('Black Flag') 64-bit
Writing library : libebml v1.3.10 + v1.5.2

Video
ID : 1
Format : AVC
Format/Info : Advanced Video Codec
Format profile : [email protected]
Format settings : CABAC / 3 Ref Frames
Format settings, CABAC : Yes
Format settings, Reference : 3 frames
Codec ID : V_MPEG4/ISO/AVC
Duration : 23 min 43 s
Bit rate : 3 941 kb/s
Width : 1 920 pixels
Height : 1 080 pixels
Display aspect ratio : 16:9
Frame rate mode : Variable
Frame rate : 24.842 FPS
Original frame rate : 25.000 FPS
Color space : YUV
Chroma subsampling : 4:2:0
Bit depth : 8 bits
Scan type : Progressive
Bits/(Pixel*Frame) : 0.077
Stream size : 669 MiB (91%)
Title : S01E01
Language : English
Default : Yes
Forced : No

Audio #1
ID : 2
Format : AC-3
Format/Info : Audio Coding 3
Commercial name : Dolby Digital
Codec ID : A_AC3
Duration : 23 min 43 s
Bit rate mode : Constant
Bit rate : 192 kb/s
Channel(s) : 2 channels
Channel layout : L R
Sampling rate : 48.0 kHz
Frame rate : 31.250 FPS (1536 SPF)
Compression mode : Lossy
Stream size : 32.6 MiB (4%)
Title : DUB | ТЕТ
Language : Ukrainian
Service kind : Complete Main
Default : Yes
Forced : Yes

Audio #2
ID : 3
Format : LC
Format/Info : Advanced Audio Codec Low Complexity
Codec ID : A_AAC-2
Duration : 23 min 43 s
Bit rate : 192 kb/s
Channel(s) : 2 channels
Channel layout : L R
Sampling rate : 48.0 kHz
Frame rate : 46.875 FPS (1024 SPF)
Compression mode : Lossy
Stream size : 32.6 MiB (4%)
Language : English
Default : No
Forced : No
Скріншоти:


Запис/зведення: sergiyko


Бронзовий реліз (на рейтинг впливає 75% завантаженого)
 Трекер:    Зареєстрований   

Завантажити / скачати мультфільм українською



відео для новачків



 Зареєстрований:   2020-06-27 23:21
 Розмір:   18.7 GB 
 Оцінка мультсеріалу:   10/10 (Голосів: 3)
   
Ваш часовий пояс: GMT + 2 Години

Нова тема   Відповісти