Грімм (Сезон 3) / Grimm (Season 3) (2013-2014) 720p Ukr/Eng | sub Eng

Нові коментарі

Нова тема   Відповісти
Автор Повідомлення
Anonymous 







2020-06-27 17:35  
Грімм (Сезон 3) / Grimm (Season 3) (2013-2014) 720p Ukr/Eng | sub Eng

Грімм (Сезон 3) / Grimm (Season 3) (2013-2014) 720p Ukr/Eng | sub Eng


Жанр: фентезі, драма, жахи
Країна: США



Кінокомпанія: GK Productions, Hazy Mills Productions, Universal Television
Режисер: Стівен Карпентер (Stephen Carpenter), Девід Грінволт (David Greenwalt), Джим Коуф (Jim Kouf)
Актори: Дейв Ґвінтолі (David Giuntoli), Расселл Горнсбі (Russell Hornsby), Сайлас Вейр Мітчелл (Silas Weir Mitchell), Бітсі Таллоч (Elizabeth Tulloch) та інші

Сюжет:
Молодий детектив Нік Беркхардт є спадкоємцем роду Грімм - мисливців за нечистю, яка живе у світі людей. Всі нащадки Гриммів володіють ключовою здатністю - вони можуть бачити справжню сутність злих тварюк, під якою б личиною вони не ховалися. Соратником Ніка стає перевихований "Різник" - перевертень Едді Монро, що допомагає йому пізнавати таїнства древньої міфології.


Тривалість: 1 серія: ~43 хв. (цілком серій: 22)
Перелік серій
01) The Ungrateful Dead
02) PTZD
03) A Dish Best Served Cold
04) One Night Stand
05) El Cucuy
06) Stories We Tell Our Young
07) Cold Blooded
08) Twelve Days of Krampus
09) Red Menace
10) Eyes of the Beholder
11) The Good Soldier
12) The Wild Hunt
13) Revelation
14) Mommy Dearest
15) Once We Were Gods
16) The Show Must Go On
17) Synchronicity
18) The Law of Sacrifice
19) Nobody Knows the Trubel I've Seen
20) My Fair Wesen
21) The Inheritance
22) Blond Ambition
Якість:
Відео:
кодек:
розмір кадру: 1280 x 720
бітрейт: ~5700 кб/с

Аудіо # 1:
мова: українська
переклад: багатоголосий закадровий
кодек: 2.0
бітрейт: 192 кб/с

Аудіо # 2:
мова: англійська
переклад: оригінал
кодек: 5.1
бітрейт: 640 кб/с

Джерело озвучення:


Субтитри:
мова: англійська
тип: програмні (м'які)
формат: *.srt
Info
General
Unique ID : 169179048289383790831771514172592231757 (0x7F46B312D90EBBA05A54EB968AE6154D)
Complete name : F:\Support\series\Grimm (Season 3) [, 720p, Ukr, Eng]\Grimm. s03e01. The Ungrateful Dead.
Format :
Format version : Version 4
File size : 1.98 GiB
Duration : 43 min 5 s
Overall bit rate : 6 575 kb/s
Encoded date : UTC 2020-06-27 08:35:36
Writing application : v47.0.0 ('Black Flag') 64-bit
Writing library : libebml v1.3.10 + v1.5.2

Video
ID : 1
Format : AVC
Format/Info : Advanced Video Codec
Format profile : [email protected]
Format settings : CABAC / 5 Ref Frames
Format settings, CABAC : Yes
Format settings, Reference : 5 frames
Codec ID : V_MPEG4/ISO/AVC
Duration : 43 min 4 s
Bit rate : 5 739 kb/s
Width : 1 280 pixels
Height : 720 pixels
Display aspect ratio : 16:9
Frame rate mode : Constant
Frame rate : 23.976 FPS
Color space : YUV
Chroma subsampling : 4:2:0
Bit depth : 8 bits
Scan type : Progressive
Bits/(Pixel*Frame) : 0.260
Stream size : 1.73 GiB (87%)
Writing library : core 142 r2453 ea0ca51
Encoding settings : cabac=1 / ref=5 / deblock=1:0:0 / analyse=0x3:0x133 / me=umh / subme=7 / psy=1 / psy_rd=1.00:0.00 / mixed_ref=1 / me_range=16 / chroma_me=1 / trellis=1 / 8x8dct=1 / cqm=0 / deadzone=21,11 / fast_pskip=0 / chroma_qp_offset=-2 / threads=18 / lookahead_threads=3 / sliced_threads=0 / nr=0 / decimate=1 / interlaced=0 / bluray_compat=0 / constrained_intra=0 / bframes=3 / b_pyramid=2 / b_adapt=1 / b_bias=0 / direct=1 / weightb=1 / open_gop=0 / weightp=2 / keyint=250 / keyint_min=23 / scenecut=40 / intra_refresh=0 / rc_lookahead=40 / rc=2pass / mbtree=1 / bitrate=5739 / ratetol=1.0 / qcomp=0.60 / qpmin=0 / qpmax=69 / qpstep=4 / cplxblur=20.0 / qblur=0.5 / ip_ratio=1.40 / aq=1:1.00
Language : English
Default : Yes
Forced : No

Audio #1
ID : 2
Format : AC-3
Format/Info : Audio Coding 3
Commercial name : Dolby Digital
Codec ID : A_AC3
Duration : 43 min 5 s
Bit rate mode : Constant
Bit rate : 192 kb/s
Channel(s) : 2 channels
Channel layout : L R
Sampling rate : 48.0 kHz
Frame rate : 31.250 FPS (1536 SPF)
Compression mode : Lossy
Stream size : 59.2 MiB (3%)
Title : Новий
Language : Ukrainian
Service kind : Complete Main
Default : Yes
Forced : No

Audio #2
ID : 3
Format : AC-3
Format/Info : Audio Coding 3
Commercial name : Dolby Digital
Codec ID : A_AC3
Duration : 43 min 5 s
Bit rate mode : Constant
Bit rate : 640 kb/s
Channel(s) : 6 channels
Channel layout : L R C LFE Ls Rs
Sampling rate : 48.0 kHz
Frame rate : 31.250 FPS (1536 SPF)
Compression mode : Lossy
Stream size : 197 MiB (10%)
Language : English
Service kind : Complete Main
Default : No
Forced : No

Text
ID : 4
Format : UTF-8
Codec ID : S_TEXT/UTF8
Codec ID/Info : UTF-8 Plain Text
Duration : 42 min 16 s
Bit rate : 55 b/s
Count of elements : 560
Stream size : 17.1 KiB (0%)
Language : English
Default : No
Forced : No

Menu
00:00:00.000 : en:00:00:00.000
00:00:42.042 : en:00:00:42.042
00:10:29.629 : en:00:10:29.629
00:16:57.016 : en:00:16:57.016
00:22:54.373 : en:00:22:54.373
00:30:29.828 : en:00:30:29.828
00:35:54.152 : en:00:35:54.152
00:42:26.544 : en:00:42:26.544
Скріншоти

Українську доріжку взято з релізу https://toloka.to/t110148

Джерело: &
Особиста оцінка: 0 - не дивився





Срібний реліз (на рейтинг впливає 50% завантаженого)
 Трекер:    Зареєстрований   

Завантажити / скачати серіал українською



відео для новачків



 Зареєстрований:   2020-06-27 17:35
 Розмір:   43.54 GB 
 Оцінка серіалу:   9.8/10 (Голосів: 5)
   
Nahalist 
VIP


З нами з: 12.12.13
Востаннє: 29.11.20
Повідомлень: 318

2020-07-12 21:32  
ого, третій це крутяк, а то думав саби робити, тоді значить до 4 буду
MrRyanCooper 
VIP


З нами з: 23.08.12
Востаннє: 23.10.20
Повідомлень: 519

2020-08-31 09:36  
А 4-й і п'ятий хтось писав?? А то я не міг як і багато інших людей дивитися по ТБ в первний час. Думав на Толоці є, а виходить немає Sad (1)
Anonymous 







2020-08-31 09:40  
MrRyanCooper написано:
А 4-й і п'ятий хтось писав?? А то я не міг як і багато інших людей дивитися по ТБ в первний час. Думав на Толоці є, а виходить немає Sad (1)

Записи є, релізити ніхто не хоче.

Dr.S 
Поважний учасник


З нами з: 30.05.17
Востаннє: 27.11.20
Повідомлень: 151

2020-08-31 20:40  
Anonymous написано:
Записи є, релізити ніхто не хоче.

отакої Cry (1)

Ваш часовий пояс: GMT + 2 Години

Нова тема   Відповісти