Дельфін Берні / Bernie the Dolphin (2018) 1080p Ukr/Eng | Sub Eng

Нові коментарі

Нова тема   Відповісти
Автор Повідомлення
Anonymous 







2020-06-26 19:55  
Дельфін Берні / Bernie the Dolphin (2018) 1080p Ukr/Eng | Sub Eng

Дельфін Берні / Bernie the Dolphin (2018) 1080p Ukr/Eng | Sub Eng


Жанр: пригодницький, комедія, сімейний
Країна: Канада



Кінокомпанія: Fairway Film Alliance
Режисер: Кірк Харріс
Актори: Лола Султан, Логан Аллен, Кевін Сорбо, стели савантів, Шон Майкл Глорія, Патрік Малдун, Дахлія Леголт, Сем Сорбо

Сюжет:
Одинадцятирічний Кевін і його молодша сестричка Холлі живуть на узбережжі Флориди, обожнюють досліджувати підводний світ і часто грають з їх другом - дельфіном Берні і його сім'єю. Але одного разу Берні пропадає, і під час його пошуків діти випадково дізнаються про жахливі плани місцевого бізнесмена Вінстона Міллса: на місці їх улюбленого пляжу він хоче побудувати ізольовану бухту, що несе величезну загрозу для всіх морських мешканців, що живуть в цих краях. Тепер героям треба розробити план, щоб врятувати пляж і допомогти Берні повернутися до сім'ї.


Тривалість: 01:27:52
Якість: 1080p
Відео:
кодек:
розмір кадру: 1920x816
бітрейт: 10,7 Мб/с

Аудіо # 1:
мова: українська
переклад: багатоголосий закадровий
кодек: 2.0
бітрейт: 192 кб/с

Аудіо # 2:
мова: англійська
переклад: оригінал
кодек: 5.1
бітрейт: 640 кб/с

Субтитри:
мова: англійська
тип: програмні (м'які)
формат: *.srt
Info
General
Unique ID : 198453145266987436125105621081583242377 (0x954CAF7D1BBDA6FDAB7FA0BD57E3CC89)
Complete name : E:\Toloka\2020\Bernie the Dolphin (2018) 1080p.
Format :
Format version : Version 4
File size : 7.09 GiB
Duration : 1 h 27 min
Overall bit rate : 11.6 Mb/s
Encoded date : UTC 2020-06-26 16:47:43
Writing application : v6.1.0 ('Old Devil') built on Mar 4 2013 09:10:42
Writing library : libebml v1.3.0 + v1.4.0

Video
ID : 1
Format : AVC
Format/Info : Advanced Video Codec
Format profile : [email protected]
Format settings : CABAC / 5 Ref Frames
Format settings, CABAC : Yes
Format settings, Reference : 5 frames
Codec ID : V_MPEG4/ISO/AVC
Duration : 1 h 27 min
Bit rate : 10.5 Mb/s
Width : 1 920 pixels
Height : 816 pixels
Display aspect ratio : 2.35:1
Frame rate mode : Constant
Frame rate : 23.976 (24000/1001) FPS
Color space : YUV
Chroma subsampling : 4:2:0
Bit depth : 8 bits
Scan type : Progressive
Bits/(Pixel*Frame) : 0.279
Stream size : 6.44 GiB (91%)
Writing library : core 157 r2935 545de2f
Encoding settings : cabac=1 / ref=5 / deblock=1:-3:-3 / analyse=0x3:0x133 / me=umh / subme=10 / psy=1 / psy_rd=1.00:0.00 / mixed_ref=1 / me_range=32 / chroma_me=1 / trellis=2 / 8x8dct=1 / cqm=0 / deadzone=21,11 / fast_pskip=0 / chroma_qp_offset=-2 / threads=24 / lookahead_threads=6 / sliced_threads=0 / nr=0 / decimate=0 / interlaced=0 / bluray_compat=0 / constrained_intra=0 / bframes=16 / b_pyramid=2 / b_adapt=2 / b_bias=0 / direct=3 / weightb=1 / open_gop=0 / weightp=2 / keyint=240 / keyint_min=24 / scenecut=40 / intra_refresh=0 / rc_lookahead=60 / rc=crf / mbtree=0 / crf=15.0 / qcomp=0.60 / qpmin=0 / qpmax=69 / qpstep=4 / vbv_maxrate=62500 / vbv_bufsize=78125 / crf_max=0.0 / nal_hrd=none / filler=0 / ip_ratio=1.40 / pb_ratio=1.30 / aq=2:1.00
Language : English
Default : Yes
Forced : No
Color range : Limited
Color primaries : BT.709
Transfer characteristics : BT.709
Matrix coefficients : BT.709
Duration_Source : General_Duration

Audio #1
ID : 2
Format : AC-3
Format/Info : Audio Coding 3
Commercial name : Dolby Digital
Codec ID : A_AC3
Duration : 1 h 27 min
Bit rate mode : Constant
Bit rate : 192 kb/s
Channel(s) : 2 channels
Channel layout : L R
Sampling rate : 48.0 kHz
Frame rate : 31.250 FPS (1536 SPF)
Compression mode : Lossy
Stream size : 121 MiB (2%)
Title : UKR (AMC)
Language : Ukrainian
Service kind : Complete Main
Default : Yes
Forced : Yes
Duration_Source : General_Duration

Audio #2
ID : 3
Format : AC-3
Format/Info : Audio Coding 3
Commercial name : Dolby Digital
Codec ID : A_AC3
Duration : 1 h 27 min
Bit rate mode : Constant
Bit rate : 640 kb/s
Channel(s) : 6 channels
Channel layout : L R C LFE Ls Rs
Sampling rate : 48.0 kHz
Frame rate : 31.250 FPS (1536 SPF)
Compression mode : Lossy
Stream size : 402 MiB (6%)
Title : ENG
Language : English
Service kind : Complete Main
Default : No
Forced : No
Duration_Source : General_Duration

Text
ID : 4
Format : UTF-8
Codec ID : S_TEXT/UTF8
Codec ID/Info : UTF-8 Plain Text
Title : ENG
Language : English
Default : No
Forced : No

Menu
00:00:00.000 : en:Chapter 1
00:02:34.905 : en:Chapter 2
00:12:10.396 : en:Chapter 3
00:23:06.510 : en:Chapter 4
00:29:23.845 : en:Chapter 5
00:34:18.556 : en:Chapter 6
00:42:55.948 : en:Chapter 7
00:49:51.071 : en:Chapter 8
00:54:52.998 : en:Chapter 9
01:03:44.779 : en:Chapter 10
01:13:40.249 : en:Chapter 11
01:22:08.006 : en:Chapter 12
Скріншоти



За запис звуку з ТБ дякуємо пану Krigg070
Особиста подяка пану denixx за надану матеріальну допомогу на підтримку цього і майбутніх релізів.
Джерело:


 Трекер:    Зареєстрований   

Завантажити / скачати фільм українською



відео для новачків



 Зареєстрований:   2020-06-26 19:55
 Розмір:   7.09 GB 
 Оцінка фільму:   10/10 (Голосів: 4)
   
Інші релізи
Ваш часовий пояс: GMT + 2 Години

Нова тема   Відповісти