Пригоди Плуто Неша / The Adventures of Pluto Nash (2002) 720p 2xUkr/Eng

Нові коментарі

Нова тема   Відповісти
Автор Повідомлення
Anonymous 







2020-06-26 17:22  
Пригоди Плуто Неша / The Adventures of Pluto Nash (2002) 720p 2xUkr/Eng

Пригоди Плуто Неша / The Adventures of Pluto Nash (2002) 720p 2xUkr/Eng


Жанр: комедія
Країна: США, Австралія



Кінокомпанія: Castle Rock Entertainment
Режисер: Рон Андервуд
Актори: Едді Мерфі, Ренді Куейд, Розаріо Доусон, Джо Пантоліано, Джей Мор, Луїс Гузман, Джеймс Ребхорн

Сюжет:
Ласкаво просимо на Місяць 2087 року. Всі природні ресурси вичерпані, планета стала новим Диким Заходом: місцем, де гроші і зв'язки вирішують все. Плуто Неш - безстрашний і успішний власник найпопулярнішого нічного клубу міста. Відмовившись продати свій розважальний заклад Могану, гангстеру, який допомагає загадковому Рексу Картеру здійснити підступний план захоплення всієї планети, Плуто опиняється у доволі складній ситуації...


Тривалість: 01:34:48
Якість: 720p
Відео:
кодек:
розмір кадру: 1276х720
бітрейт: 4182 кб/с

Аудіо # 1:
мова: українська
переклад: багатоголосий закадровий
кодек: 2.0
бітрейт: 192 кб/с

Аудіо # 2:
мова: українська
переклад: багатоголосий закадровий
кодек: 2.0
бітрейт: 192 кб/с

Аудіо # 3:
мова: англійська
переклад: оригінал
кодек: 2.0
бітрейт: 156 кб/с
Info
General
Unique ID : 217448277881824343158843471318507388325 (0xA39703D541F8707AB5C8B6B075F4FDA5)
Complete name : E:\Toloka\2020\The Adventures of Pluto Nash (2002) 720p.
Format :
Format version : Version 4
File size : 3.13 GiB
Duration : 1 h 35 min
Overall bit rate : 4 722 kb/s
Encoded date : UTC 2020-06-26 14:13:34
Writing application : v6.1.0 ('Old Devil') built on Mar 4 2013 09:10:42
Writing library : libebml v1.3.0 + v1.4.0

Video
ID : 1
Format : AVC
Format/Info : Advanced Video Codec
Format profile : [email protected]
Format settings : 2 Ref Frames
Format settings, CABAC : No
Format settings, Reference : 2 frames
Format settings, GOP : N=1
Codec ID : V_MPEG4/ISO/AVC
Duration : 1 h 35 min
Width : 1 276 pixels
Height : 720 pixels
Display aspect ratio : 16:9
Frame rate mode : Constant
Frame rate : 23.976 FPS
Color space : YUV
Chroma subsampling : 4:2:0
Bit depth : 8 bits
Scan type : Progressive
Language : English
Default : Yes
Forced : No
Color range : Limited
Color primaries : BT.709
Transfer characteristics : BT.709
Matrix coefficients : BT.709
Duration_Source : General_Duration

Audio #1
ID : 2
Format : AC-3
Format/Info : Audio Coding 3
Commercial name : Dolby Digital
Codec ID : A_AC3
Duration : 1 h 35 min
Bit rate mode : Constant
Bit rate : 192 kb/s
Channel(s) : 2 channels
Channel layout : L R
Sampling rate : 48.0 kHz
Frame rate : 31.250 FPS (1536 SPF)
Compression mode : Lossy
Stream size : 130 MiB (4%)
Title : UKR (ICTV)
Language : Ukrainian
Service kind : Complete Main
Default : Yes
Forced : Yes
Duration_Source : General_Duration

Audio #2
ID : 3
Format : AC-3
Format/Info : Audio Coding 3
Commercial name : Dolby Digital
Codec ID : A_AC3
Duration : 1 h 35 min
Bit rate mode : Constant
Bit rate : 192 kb/s
Channel(s) : 2 channels
Channel layout : L R
Sampling rate : 48.0 kHz
Frame rate : 31.250 FPS (1536 SPF)
Compression mode : Lossy
Stream size : 130 MiB (4%)
Title : UKR (Inter)
Language : Ukrainian
Service kind : Complete Main
Default : No
Forced : No
Duration_Source : General_Duration

Audio #3
ID : 4
Format : LC
Format/Info : Advanced Audio Codec Low Complexity
Codec ID : A_AAC-2
Duration : 1 h 35 min
Channel(s) : 2 channels
Channel layout : L R
Sampling rate : 48.0 kHz
Frame rate : 46.875 FPS (1024 SPF)
Compression mode : Lossy
Title : ENG
Language : English
Default : No
Forced : No
Duration_Source : General_Duration

Menu
00:00:00.000 : en:Lunar Credits.
00:02:32.000 : en:Tony Francis.
00:04:57.000 : en:Join the Club.
00:08:24.000 : en:Helping hand.
00:12:53.000 : en:Mogan's proposal.
00:15:26.000 : en:Bomb detonated.
00:19:15.000 : en:Shooting the works.
00:22:53.000 : en:Rowland knows.
00:27:19.000 : en:Where the bodies are.
00:32:49.000 : en:Nice shooting ma.
00:36:36.000 : en:I'm being stolen.
00:39:24.000 : en:Bad luck, old boy.
00:41:59.000 : en:Hideaway with maid.
00:44:39.000 : en:The Marucci file.
00:47:29.000 : en:Rowland rubout.
00:50:09.000 : en:Letting the air out.
00:52:26.000 : en:Rill-hopping.
00:58:10.000 : en:All tuckered out.
01:01:18.000 : en:Felix to the rescue.
01:04:51.000 : en:The Lunar Grand.
01:08:43.000 : en:Big-time Tony.
01:12:23.000 : en:What's Plan B?
01:16:33.000 : en:Meet Rex Carter.
01:20:22.000 : en:Which one' which?
01:25:00.000 : en:Craps, you lose.
01:26:30.000 : en:Grand reopening.
01:29:38.000 : en:End credits.
Скріншоти





За запис звуку для доріжки №1 подяка п. xslim
За доріжку №2 подяка п. dbdeveloper, KevinCostner

Особиста подяка пану denixx за надану матеріальну допомогу на підтримку цього і майбутніх релізів.
Джерело:


Срібний реліз (на рейтинг впливає 50% завантаженого)
 Трекер:    Зареєстрований   

Завантажити / скачати фільм українською



відео для новачків



 Зареєстрований:   2020-06-26 17:22
 Розмір:   3.13 GB 
 Оцінка фільму:   7.8/10 (Голосів: 4)
   
Інші релізи
Ваш часовий пояс: GMT + 2 Години

Нова тема   Відповісти