[збір коштів] Перрі Мейсон (Сезон 1, серія 1) / Perry Mason (Season 1, episode 1) (2020) Ukr/Eng

Нові коментарі

Нова тема   Відповісти
Автор Повідомлення
Цікава ідея 
VIP


З нами з: 26.12.11
Востаннє: 10.07.20
Повідомлень: 516

2020-06-26 13:47  
| AVC | 1080p

[збір коштів] Перрі Мейсон (Сезон 1, серія 1) / Perry Mason (Season 1, episode 1) (2020) Ukr/Eng


[збір коштів] Перрі Мейсон (Сезон 1, серія 1) / Perry Mason (Season 1, episode 1) (2020) Ukr/Eng


За серіалом 1957 року.
У головній ролі Реймонд Барр.


Жанр: кримінал, драма
Країна: США



Кінокомпанія / телеканал: HBO
Режисери: Рон Фіцджеральд, Ролін Джонс
Актори: Меттью Ріс, Джеддія Дженк, Нік Ла Круа, Тетяна Маслані, Дрю Уолтон, Джульєтта Райланс, Гізер Шилдс, Денис Толяренко, Жанна Карр та інші.

Сюжет:
Американський телевізійний міні-серіал детективного жанру за романом Ерла Стенлі Гарднера «Перрі Мейсон».
Історію про детектива Перрі Мейсона екранізовували вже неодноразово, як в серіалах, так і у повнометражних фільмах. У новому серіалі піде мова про часи, коли Мейсон ще не працював адвокатом захисту.

Події розгортаються у 1932 році — часи відновлення Сполучених Штатів після Великої депресіі, та розквіту Лос-Анджелеса. Детективу доведеться розслідувати крупну справу, яка виявить злочинний бік міста.


На озвучення серіалу проходить ЗБІР КОШТІВ

Перекладено та озвучено ТО "Цікава Ідея"


Український трейлер в нашому озвученні.


ЯКЩО НЕ ПРАЦЮЄ ТИЦЬ СЮДИ


Тривалість: 1 серія: ~ 55 хв. (цілком серій: 1/8)
Перелік серій:

01. Chapter One
02. —
03. —
04. —
05. —
06. —
07. —
08. —
Якість:
Відео:
кодек:
розмір кадру: 704 x 352
бітрейт: ~ 1 700 кб/с

Аудіо # 1:
мова: українська | "Цікава Ідея"
переклад: професійний багатоголосий закадровий
кодек: 5.1
бітрейт: 448 кб/с

Аудіо # 2:
мова: англійська
переклад: оригінал
кодек: 5.1
бітрейт: 448 кб/с
Info
Код:
Format                      : AVI
Format/Info                 : Audio Video Interleave
Format profile              : OpenDML
File size                   : 1.02 GiB
Duration                    : 57 min 31 s
Overall bit rate            : 2 550 kb/s
Movie name                  : Перрі Мейсон / Perry Mason - S01E01 (2020) 1080p [Ukr.Eng] [Цікава Ідея]
Writing application         : Lavf58.20.100

Video
ID                          : 0
Format                      : MPEG-4 Visual
Format profile              : Advanced [email protected]
Format settings             : BVOP1
Format settings, BVOP       : 1
Format settings, QPel       : No
Format settings, GMC        : No warppoints
Format settings, Matrix     : Default (H.263)
Codec ID                    :
Codec ID/Hint               :
Duration                    : 57 min 30 s
Bit rate                    : 1 632 kb/s
Width                       : 704 pixels
Height                      : 352 pixels
Display aspect ratio        : 2.000
Frame rate                  : 23.976 (24000/1001) FPS
Color space                 : YUV
Chroma subsampling          : 4:2:0
Bit depth                   : 8 bits
Scan type                   : Progressive
Compression mode            : Lossy
Bits/(Pixel*Frame)          : 0.275
Stream size                 : 671 MiB (64%)
Writing library             : 67

Audio #1
ID                          : 1
Format                      : AC-3
Format/Info                 : Audio Coding 3
Commercial name             : Dolby Digital
Codec ID                    : 2000
Duration                    : 57 min 30 s
Bit rate mode               : Constant
Bit rate                    : 448 kb/s
Channel(s)                  : 6 channels
Channel layout              : L R C LFE Ls Rs
Sampling rate               : 48.0 kHz
Frame rate                  : 31.250 FPS (1536 SPF)
Bit depth                   : 16 bits
Compression mode            : Lossy
Stream size                 : 184 MiB (18%)
Alignment                   : Aligned on interleaves
Interleave, duration        : 32  ms (0.77 video frame)
Title                       : Українська
Service kind                : Complete Main

Audio #2
ID                          : 2
Format                      : AC-3
Format/Info                 : Audio Coding 3
Commercial name             : Dolby Digital
Codec ID                    : 2000
Duration                    : 57 min 31 s
Bit rate mode               : Constant
Bit rate                    : 448 kb/s
Channel(s)                  : 6 channels
Channel layout              : L R C LFE Ls Rs
Sampling rate               : 48.0 kHz
Frame rate                  : 31.250 FPS (1536 SPF)
Bit depth                   : 16 bits
Compression mode            : Lossy
Stream size                 : 184 MiB (18%)
Alignment                   : Aligned on interleaves
Interleave, duration        : 32  ms (0.77 video frame)
Service kind                : Complete Main
Скріншоти



Перекладено та озвучено творчим об'єднанням:
Переклад: Федір Сидорук.
Ролі озвучили: Семен Птаха, Юлія Малахова, Олексій Сафін, Ганна Квочкіна, Андрій Корзаченко, Олександр Чернов та Матвій Ніколаєв.


Авторський реліз (завантажувати можна без реєстрації)
 Трекер:    Зареєстрований   

Завантажити / скачати серіал українською



відео для новачків



 Зареєстрований:   2020-06-26 13:47
 Розмір:   1.02 GB 
 Оцінка серіалу:   10/10 (Голосів: 2)
   
Цікава ідея 
VIP


З нами з: 26.12.11
Востаннє: 10.07.20
Повідомлень: 516

2020-06-26 13:48  
Друзі, ми переклали та озвучили 1 серію!
Підтримайте озвучення наступних серій,
реквізити в описі релізу.


Бажаємо всім приємного перегляду!

Ваш часовий пояс: GMT + 2 Години

Нова тема   Відповісти