Паперовий будинок: Феномен / La casa de papel: El fenómeno / Money Heist: The Phenomenon (2020) Ukr/Spa

Нові коментарі

Нова тема   Відповісти
Останній раз роздавалося Frantic_Black (2020-07-06)
Автор Повідомлення
Цікава ідея 
VIP


З нами з: 26.12.11
Востаннє: 06.07.20
Повідомлень: 512

2020-06-26 13:38  
| AVC | 1080p

Паперовий будинок: Феномен / La casa de papel: El fenómeno / Money Heist: The Phenomenon (2020) Ukr/Spa


Паперовий будинок: Феномен / La casa de papel: El fenómeno / Money Heist: The Phenomenon (2020) Ukr/Spa


Жанр: документальний
Країна: Іспанія



Кінокомпанія / телеканал: Vancouver Media, Netflix
Режисери: Хесус Кольменар, Алекс Родріго, Алехандро Бассоно
Актори: Едан Мосес, Урсула Корберо, Іціар Ітуньйо, Альваро Морте, Педро Алонсо, Альба Флоренс, Мігель Ерран

Сюжет:
Документальний фільм про те, як і чому серіал «Паперовий будинок» викликав хвилю ентузіазму по всьому світу і знайшов неймовірну популярність.


Перекладено та озвучено ТО "Цікава Ідея" за підтримки fishMD


Тривалість: 57 хв.

Якість:
Відео:
кодек:
розмір кадру: 720 x 400
бітрейт: 2 657 кб/с

Аудіо # 1:
мова: українська | "Цікава Ідея"
переклад: професійний багатоголосий закадровий
кодек: 5.1
бітрейт: 448 кб/с

Аудіо # 2:
мова: іспанська
переклад: оригінал
кодек: 5.1
бітрейт: 448 кб/с

Субтитри # 1:
мова: українська
тип: програмні (м'які)
формат: *.srt
Info
Код:
Format                      : AVI
Format/Info                 : Audio Video Interleave
Format profile              : OpenDML
File size                   : 1.43 GiB
Duration                    : 57 min 24 s
Overall bit rate            : 3 572 kb/s
Movie name                  : Паперовий Р±СѓРґРёРЅРѕРє: Феномен / La casa de papel: El fenГіmeno / Money Heist: The Phenomenon (2020) 1080p [Ukr.Spa] [Цікава Ідея]
Writing application         : Lavf58.20.100

Video
ID                          : 0
Format                      : MPEG-4 Visual
Format profile              : Advanced [email protected]
Format settings             : BVOP1
Format settings, BVOP       : 1
Format settings, QPel       : No
Format settings, GMC        : No warppoints
Format settings, Matrix     : Default (H.263)
Codec ID                    :
Codec ID/Hint               :
Duration                    : 57 min 24 s
Bit rate                    : 2 657 kb/s
Width                       : 720 pixels
Height                      : 400 pixels
Display aspect ratio        : 16:9
Frame rate                  : 24.000 FPS
Color space                 : YUV
Chroma subsampling          : 4:2:0
Bit depth                   : 8 bits
Scan type                   : Progressive
Compression mode            : Lossy
Bits/(Pixel*Frame)          : 0.384
Stream size                 : 1.07 GiB (74%)
Writing library             : 67

Audio #1
ID                          : 1
Format                      : AC-3
Format/Info                 : Audio Coding 3
Commercial name             : Dolby Digital
Codec ID                    : 2000
Duration                    : 57 min 24 s
Bit rate mode               : Constant
Bit rate                    : 448 kb/s
Channel(s)                  : 6 channels
Channel layout              : L R C LFE Ls Rs
Sampling rate               : 48.0 kHz
Frame rate                  : 31.250 FPS (1536 SPF)
Bit depth                   : 16 bits
Compression mode            : Lossy
Stream size                 : 184 MiB (13%)
Alignment                   : Aligned on interleaves
Interleave, duration        : 32  ms (0.77 video frame)
Title                       : Українська
Service kind                : Complete Main

Audio #2
ID                          : 2
Format                      : AC-3
Format/Info                 : Audio Coding 3
Commercial name             : Dolby Digital
Codec ID                    : 2000
Duration                    : 57 min 24 s
Bit rate mode               : Constant
Bit rate                    : 448 kb/s
Channel(s)                  : 6 channels
Channel layout              : L R C LFE Ls Rs
Sampling rate               : 48.0 kHz
Frame rate                  : 31.250 FPS (1536 SPF)
Bit depth                   : 16 bits
Compression mode            : Lossy
Stream size                 : 184 MiB (13%)
Alignment                   : Aligned on interleaves
Interleave, duration        : 32  ms (0.77 video frame)
Service kind                : Complete Main
Скріншоти



Озвучено творчим об'єднанням:
Переклад: Федір Сидорук.
Ролі озвучили: Семен Птаха, Олексій Сафін, Юлія Малахова, Андрій Корзаченко, Олександр Чернов та Матвій Ніколаєв.


Авторський реліз (завантажувати можна без реєстрації)
 Трекер:    Зареєстрований   

Завантажити / скачати торрент



відео для новачків



 Зареєстрований:   2020-06-26 13:38
 Розмір:   1.43 GB 
 Оцінка:   6.8/10 (Голосів: 4)
   
Ваш часовий пояс: GMT + 2 Години

Нова тема   Відповісти