Красиві дівчата / Beautiful Girls (1996) AVC Ukr/Eng

Нові коментарі

Нова тема   Відповісти
Автор Повідомлення
Arsenfpu 
Відео Гуртом - фільмокрай
Відео Гуртом - фільмокрай


З нами з: 30.04.09
Востаннє: 04.07.20
Повідомлень: 7031

2020-06-26 00:53  
Красиві дівчата / Beautiful Girls (1996) AVC Ukr/Eng

Красиві дівчата / Beautiful Girls (1996) AVC Ukr/Eng


Жанр: драма, комедія
Країна: США



Кінокомпанія: Miramax Films
Режисер: Тед Демме
Актори: Тімоті Хаттон, Метт Діллон, Ноа Еммеріх, Аннабет Гіш, Лорен Холлі, Наталі Портман, Ума Турман

Сюжет:
Трагікомедія, яка проникає в глибину людських відносин і характерів. Чоловік закриває кришку старого піаніно, допиває віскі, збирає виручені за день гроші і бере квиток в один кінець в Найтс-Рідж - маленький, глухе вигадане містечко штату Массачусетс , де він виріс. Там живе його батько, який сумував за померлу дружину, брат-нероба, там живуть його друзі по школі - хто одружений і з дітьми, а хто до сих пір хитається по околицях. Там, в будинку по сусідству, живе маленька, але дуже розумна дівчинка, яку він побачить вперше. Бар і салон краси стають улюбленим місцем для обговорення проблем, що виникають між чоловіками і жінками. Справжня любов і гіркота зрад, чоловіча дружба і жіноча вірність вигадливо переплітаються в долях героїв, міняючи звичний життєвий уклад.


Тривалість: 01:52:35
Якість:
Відео:
кодек:
розмір кадру: 1 024 х 560
бітрейт: 2 400 кб/с

Аудіо # 1:
мова: українська
переклад: багатоголосий закадровий
кодек: 2.0
бітрейт: 192 кб/с

Аудіо # 2:
мова: англійська
переклад: оригінал
кодек: 2.0
бітрейт: 192 кб/с
Скріншоти














Про файл
General
Unique ID : 113549810102895089380244579605098968799 (0x556CE5DFC460BAFFFE254D0C8E4AB6DF)
Complete name : C:\Beautiful Girls (1996) [Ukr,Eng] AVC [Hurtom].
Format :
Format version : Version 4 / Version 2
File size : 2.19 GiB
Duration : 1 h 52 min
Overall bit rate : 2 785 kb/s
Movie name : Красиві дівчата / Beautiful Girls (1996)
Encoded date : UTC 2020-06-25 21:46:27
Writing application : v21.0.0 ('Tardigrades Will Inherit The Earth') 32-bit
Writing library : libebml v1.3.5 + v1.4.8
Cover : Yes
Attachments : cover.jpg

Video
ID : 1
Format : AVC
Format/Info : Advanced Video Codec
Format profile : [email protected]
Format settings, CABAC : Yes
Format settings, ReFrames : 4 frames
Codec ID : V_MPEG4/ISO/AVC
Duration : 1 h 52 min
Bit rate : 2 400 kb/s
Width : 1 024 pixels
Height : 560 pixels
Display aspect ratio : 1.85:1
Frame rate mode : Constant
Frame rate : 24.000 FPS
Color space : YUV
Chroma subsampling : 4:2:0
Bit depth : 8 bits
Scan type : Progressive
Bits/(Pixel*Frame) : 0.174
Stream size : 1.89 GiB (86%)
Writing library : core 157 r2935 545de2f
Encoding settings : cabac=1 / ref=3 / deblock=1:-1:-1 / analyse=0x3:0x113 / me=hex / subme=7 / psy=1 / psy_rd=1.00:0.15 / mixed_ref=1 / me_range=16 / chroma_me=1 / trellis=1 / 8x8dct=1 / cqm=0 / deadzone=21,11 / fast_pskip=1 / chroma_qp_offset=-3 / threads=12 / lookahead_threads=2 / sliced_threads=0 / nr=0 / decimate=1 / interlaced=0 / bluray_compat=0 / constrained_intra=0 / bframes=3 / b_pyramid=2 / b_adapt=1 / b_bias=0 / direct=1 / weightb=1 / open_gop=0 / weightp=2 / keyint=240 / keyint_min=24 / scenecut=40 / intra_refresh=0 / rc_lookahead=40 / rc=2pass / mbtree=1 / bitrate=2400 / ratetol=1.0 / qcomp=0.60 / qpmin=0 / qpmax=69 / qpstep=4 / cplxblur=20.0 / qblur=0.5 / ip_ratio=1.40 / aq=1:1.00
Default : Yes
Forced : No

Audio #1
ID : 2
Format : AC-3
Format/Info : Audio Coding 3
Mode extension : CM (complete main)
Format settings, Endianness : Big
Codec ID : A_AC3
Duration : 1 h 52 min
Bit rate mode : Constant
Bit rate : 192 kb/s
Channel(s) : 2 channels
Channel positions : Front: L R
Sampling rate : 48.0 kHz
Frame rate : 31.250 FPS (1536 spf)
Compression mode : Lossy
Stream size : 155 MiB (7%)
Title : amc
Language : Ukrainian
Default : Yes
Forced : Yes

Audio #2
ID : 3
Format : AC-3
Format/Info : Audio Coding 3
Mode extension : CM (complete main)
Format settings, Endianness : Big
Codec ID : A_AC3
Duration : 1 h 52 min
Bit rate mode : Constant
Bit rate : 192 kb/s
Channel(s) : 2 channels
Channel positions : Front: L R
Sampling rate : 48.0 kHz
Frame rate : 31.250 FPS (1536 spf)
Compression mode : Lossy
Stream size : 155 MiB (7%)
Language : English
Default : No
Forced : No
Джерело:
Особиста оцінка: не дивився


Срібний реліз (на рейтинг впливає 50% завантаженого)
 Трекер:    Зареєстрований   

Завантажити / скачати фільм українською



відео для новачків



 Зареєстрований:   2020-06-26 00:53
 Розмір:   2.19 GB 
 Оцінка фільму:   8.9/10 (Голосів: 8)
   
Інші релізи
Ваш часовий пояс: GMT + 2 Години

Нова тема   Відповісти