Містер Селфрідж / Mr Selfridge (Сезон 1-4) (2013-2016) AVC

Нові коментарі

Нова тема   Відповісти
Автор Повідомлення
sergiyko.5 
Попереджень: 1
Попереджень: 1 


З нами з: 25.02.16
Востаннє: 24.09.20
Повідомлень: 3454

2020-06-25 13:15  
Всі одноіменні релізи на трекері

Містер Селфрідж / Mr Selfridge (Сезон 1-4) (2013-2016) AVC


Містер Селфрідж / Mr Selfridge (Сезон 1-4) (2013-2016) AVC

Жанр: драма, історичний
Країна: Велика Британія
Кінокомпанія: ITV Studios
Режисер: Ентоні Бірн, Майкл Кейллор, Джон Джонс
Актори: Джеремі Півен, Сефора Венітес, Том Гудман-Хілл, Аманда Аббінгтон, Поппі Лі Фраєр, Кетерін Келлі, Уїлл Пейн, Роанна Кокрейн, Зої Таппер, Деніел Чаппл

Сюжет:
Середньостатистичний американський підприємець Селфрідж опиняється в самому центрі зосередження амбітного проекту. Сталося це в період його візиту в британську столицю на світанку 20-го століття. Під час поїздки Селфрідж переконується, що Англії бракує торгових центрів. У 1909 році підприємець відкриває перше подібне місце. В історії буде висвітлена значна частина його життя, де будуть пережиті як злети, так і падіння власної справи.




Тривалість: 1 серія: 47:20 (цілком серій: 10+10+10+10 з 40)
Якість:

Відео: кодек: розмір кадру: 1024 x 576 бітрейт: 1400 кб/с
Аудіо # 1: мова: українська переклад: двоголосий закадровий кодек: 2.0 бітрейт: 192 кб/с
Озвучення: ТВ+
Аудіо # 2: (1 сезон) мова: українська переклад: багатоголосий закадровий кодек: 2.0 бітрейт: 192 кб/с
Озвучення: 1+1
Перелік серій
Сезон 1:
епізод 01
епізод 02
епізод 03
епізод 04
епізод 05
епізод 06
епізод 07
епізод 08
епізод 09
епізод 10

Сезон 2:
епізод 01
епізод 02
епізод 03
епізод 04
епізод 05
епізод 06
епізод 07
епізод 08
епізод 09
епізод 10

Сезон 3:
епізод 01
епізод 02
епізод 03
епізод 04
епізод 05
епізод 06
епізод 07
епізод 08
епізод 09
епізод 10

Сезон 4:
епізод 01
епізод 02
епізод 03
епізод 04
епізод 05
епізод 06
епізод 07
епізод 08
епізод 09
епізод 10
Про файл:
General
Unique ID : 50417308833347762467846784770537939708 (0x25EE053E294BC6766A26917D4FCBE2FC)
Complete name : D:\Documents\Torrents\Rizne\Mr.Selfridge \Mr.Selfridge S01 \Mr.Selfridge.S01E01..
Format :
Format version : Version 4
File size : 814 MiB
Duration : 1 h 4 min
Overall bit rate : 1 753 kb/s
Movie name : Mr.Selfridge S01 by sergiyko
Encoded date : UTC 2020-06-25 09:49:12
Writing application : v47.0.0 ('Black Flag') 64-bit
Writing library : libebml v1.3.10 + v1.5.2

Video
ID : 1
Format : AVC
Format/Info : Advanced Video Codec
Format profile : [email protected]
Format settings : CABAC / 7 Ref Frames
Format settings, CABAC : Yes
Format settings, Reference : 7 frames
Codec ID : V_MPEG4/ISO/AVC
Duration : 1 h 4 min
Bit rate : 1 367 kb/s
Width : 1 024 pixels
Height : 576 pixels
Display aspect ratio : 16:9
Frame rate mode : Constant
Frame rate : 23.976 (24000/1001) FPS
Color space : YUV
Chroma subsampling : 4:2:0
Bit depth : 8 bits
Scan type : Progressive
Bits/(Pixel*Frame) : 0.097
Stream size : 635 MiB (78%)
Title : Mr.Selfridge.S01E01
Writing library : core 159
Encoding settings : cabac=1 / ref=7 / deblock=1:-1:-1 / analyse=0x3:0x133 / me=umh / subme=10 / psy=1 / psy_rd=1.00:0.15 / mixed_ref=1 / me_range=24 / chroma_me=1 / trellis=2 / 8x8dct=1 / cqm=0 / deadzone=21,11 / fast_pskip=1 / chroma_qp_offset=-3 / threads=18 / lookahead_threads=3 / sliced_threads=0 / nr=0 / decimate=1 / interlaced=0 / bluray_compat=0 / constrained_intra=0 / bframes=8 / b_pyramid=2 / b_adapt=2 / b_bias=0 / direct=3 / weightb=1 / open_gop=0 / weightp=2 / keyint=250 / keyint_min=23 / scenecut=40 / intra_refresh=0 / rc_lookahead=60 / rc=crf / mbtree=1 / crf=19.0 / qcomp=0.60 / qpmin=0 / qpmax=69 / qpstep=4 / ip_ratio=1.40 / aq=1:1.00
Language : English
Default : Yes
Forced : No

Audio #1
ID : 2
Format : AC-3
Format/Info : Audio Coding 3
Commercial name : Dolby Digital
Codec ID : A_AC3
Duration : 1 h 4 min
Bit rate mode : Constant
Bit rate : 192 kb/s
Channel(s) : 2 channels
Channel layout : L R
Sampling rate : 48.0 kHz
Frame rate : 31.250 FPS (1536 SPF)
Compression mode : Lossy
Stream size : 89.1 MiB (11%)
Title : DVO | ТВ+
Language : Ukrainian
Service kind : Complete Main
Default : Yes
Forced : Yes

Audio #2
ID : 3
Format : AC-3
Format/Info : Audio Coding 3
Commercial name : Dolby Digital
Codec ID : A_AC3
Duration : 1 h 4 min
Bit rate mode : Constant
Bit rate : 192 kb/s
Channel(s) : 2 channels
Channel layout : L R
Sampling rate : 48.0 kHz
Frame rate : 31.250 FPS (1536 SPF)
Compression mode : Lossy
Stream size : 89.1 MiB (11%)
Title : MVO | 1+1
Language : Ukrainian
Service kind : Complete Main
Default : No
Forced : No

Menu
00:00:00.000 : :00:00:00.000
00:11:57.050 : :00:11:57.050
00:22:19.672 : :00:22:19.672
00:31:28.512 : :00:31:28.512
00:44:38.426 : :00:44:38.426
00:53:02.471 : :00:53:02.471
Скріншоти:


Запис: Neytreenor, sergiyko
Зведення: sergiyko


Бронзовий реліз (на рейтинг впливає 75% завантаженого)
 Трекер:    Зареєстрований   

Завантажити / скачати серіал українською



відео для новачків



 Зареєстрований:   2020-07-11 13:56
 Розмір:   21.39 GB 
 Оцінка серіалу:   10/10 (Голосів: 5)
   
sergiyko.5 
Попереджень: 1
Попереджень: 1 


З нами з: 25.02.16
Востаннє: 24.09.20
Повідомлень: 3454

2020-07-11 13:57  
Додав 4 сезон.
Ваш часовий пояс: GMT + 2 Години

Нова тема   Відповісти