Книга Джунглів. Дилогія / The Jungle Book. Dilogy (1967, 2003) 1080p H.265 2xUkr/Eng | Sub Eng

Нові коментарі

Нова тема   Відповісти
Автор Повідомлення
Anonymous 







2020-06-24 21:49  
Книга Джунглів. Дилогія / The Jungle Book. Dilogy (1967, 2003) 1080p H.265 2xUkr/Eng | Sub Eng

Книга Джунглів. Дилогія / The Jungle Book. Dilogy (1967, 2003) 1080p H.265 2xUkr/Eng | Sub Eng

1. 2.

1. Книга джунглів / The Jungle Book (1967) 1080p H.265 3xUkr/Eng | Sub Ukr/Eng
Книга джунглів / The Jungle Book (1967) 1080p H.265 3xUkr/Eng | Sub Ukr/Eng

Книга Джунглів. Дилогія / The Jungle Book. Dilogy (1967, 2003) 1080p H.265 2xUkr/Eng | Sub Eng


Жанр: анімація, дитячий, сімейний, музичний
Країна: США
Кінокомпанія: Walt Disney Productions
Режисер: Вольфганг Рейтерман / Wolfgang Reitherman
Актори: Філ Гарріс, Себастьян Кабот, Брюс Рейтерман, Джордж Сендерс, Стерлінг Голловей, Луї Прима, Дж. Пет О'Меллі, Верна Фелтон, Клінт Говард, Чад Стюарт та інші

Сюжет:
Вирощений вовками хлопчик Мауглі за рішенням зграї повинен повернутися до людей, щоб не потрапити в лапи до тигра-людоїда Шер Хана. Разом з пантерою Багірою Мауглі вирушає в дорогу, назустріч несподіваним знайомствам і небезпечним пригодам. Він подружиться з безтурботним ведмедем Балу, буде викрадений мавпами, стане полоненим підступного удава Каа, і ще багато чого трапиться із сміливим хлопчиком, який за словами самого Кіплінга «любить смикати смерть за вуса».

Тривалість: 01:18:27
Якість:

Відео:
кодек: H.265 (HEVC)
розмір кадру: 1884 x 1080
бітрейт: 7 216 кб/с
бітова глибина: 10 біт

Увага! Перед завантаженням переконайтесь, що ваш пристрій відтворення (та/або ПЗ) підтримує H.265 (HEVC)

Аудіо # 1:
мова: українська
переклад: професійний дубльований | Студія LeDoyen
кодек: AC-3 2.0
бітрейт: 192 кб/с

Аудіо # 2:
мова: українська
переклад: багатоголосий закадровий | Клан Кайзоку
кодек: AC-3 2.0
бітрейт: 192 кб/с

Аудіо # 3:
мова: українська
переклад: одноголосий закадровий | аматорське озвучення Slava Rudik
кодек: AC-3 2.0
бітрейт: 192 кб/с

Аудіо # 4:
мова: англійська
переклад: оригінал
кодек: 5.1
бітрейт: 1510 кб/с

Субтитри # 1: (Full)
мова: українська
тип: програмні (м'які)
формат: *.srt

Субтитри # 2-4: (Full, SDH, Commentary)
мова: англійська
тип: програмні (м'які)
формат: *.srt


Info
Код:
General
Unique ID                                : 257431827894932924639002212219681306118 (0xC1AB910C930836A947108B11F860F606)
Complete name                            : 1. The Jungle Book (1967) 1080p H.265 [3xUKR_ENG] [Hurtom].
Format                                   :
Format version                           : Version 4
File size                                : 5.10 GiB
Duration                                 : 1 h 18 min
Overall bit rate                         : 9 303 kb/s
Movie name                               : Книга Джунглів / The Jungle Book (1967)
Encoded date                             : UTC 2020-06-16 19:14:36
Writing application                      : v20.0.0 ('I Am The Sun') 64-bit
Writing library                          : libebml v1.3.5 + v1.4.8
Cover                                    : Yes
Attachments                              : Cover.jpg

Video
ID                                       : 1
Format                                   : HEVC
Format/Info                              : High Efficiency Video Coding
Format profile                           : Main [email protected]@High
Codec ID                                 : V_MPEGH/ISO/HEVC
Duration                                 : 1 h 18 min
Bit rate                                 : 7 216 kb/s
Width                                    : 1 884 pixels
Height                                   : 1 080 pixels
Display aspect ratio                     : 16:9
Frame rate mode                          : Constant
Frame rate                               : 23.976 (23976/1000) FPS
Original frame rate                      : 23.976 (24000/1001) FPS
Color space                              : YUV
Chroma subsampling                       : 4:2:0
Bit depth                                : 10 bits
Bits/(Pixel*Frame)                       : 0.148
Stream size                              : 3.95 GiB (78%)
Title                                    : Книга Джунглів / The Jungle Book (1967)
Writing library                          : x265 3.3+1-g554c887ac:[Windows][MSVC 1924][64 bit] 10bit
Encoding settings                        : cpuid=1111039 / frame-threads=3 / numa-pools=12 / wpp / no-pmode / no-pme / no-psnr / no-ssim / log-level=2 / input-csp=1 / input-res=1884x1080 / interlace=0 / total-frames=60443 / level-idc=41 / high-tier=1 / uhd-bd=0 / ref=5 / no-allow-non-conformance / no-repeat-headers / annexb / no-aud / no-hrd / info / hash=0 / no-temporal-layers / open-gop / min-keyint=23 / keyint=240 / gop-lookahead=0 / bframes=8 / b-adapt=2 / b-pyramid / bframe-bias=0 / rc-lookahead=60 / lookahead-slices=4 / scenecut=40 / hist-scenecut=0 / radl=0 / no-splice / no-intra-refresh / ctu=32 / min-cu-size=8 / rect / amp / max-tu-size=32 / tu-inter-depth=4 / tu-intra-depth=4 / limit-tu=1 / rdoq-level=2 / dynamic-rd=0.00 / no-ssim-rd / signhide / no-tskip / nr-intra=0 / nr-inter=0 / no-constrained-intra / no-strong-intra-smoothing / max-merge=4 / limit-refs=2 / limit-modes / me=3 / subme=7 / merange=57 / temporal-mvp / no-frame-dup / no-hme / weightp / weightb / no-analyze-src-pics / deblock=-3:-3 / no-sao / no-sao-non-deblock / rd=6 / selective-sao=0 / no-early-skip / no-rskip / no-fast-intra / no-tskip-fast / no-cu-lossless / no-b-intra / no-splitrd-skip / rdpenalty=0 / psy-rd=2.00 / psy-rdoq=1.00 / no-rd-refine / no-lossless / cbqpoffs=0 / crqpoffs=0 / rc=crf / crf=20.0 / qcomp=0.60 / qpstep=4 / stats-write=0 / stats-read=0 / vbv-maxrate=50000 / vbv-bufsize=50000 / vbv-init=0.9 / crf-max=0.0 / crf-min=0.0 / ipratio=1.40 / pbratio=1.30 / aq-mode=1 / aq-strength=1.00 / no-cutree / zone-count=0 / no-strict-cbr / qg-size=32 / no-rc-grain / qpmax=69 / qpmin=0 / no-const-vbv / sar=1 / overscan=0 / videoformat=5 / range=0 / colorprim=1 / transfer=1 / colormatrix=1 / chromaloc=0 / display-window=0 / cll=0,0 / min-luma=0 / max-luma=1023 / log2-max-poc-lsb=8 / vui-timing-info / vui-hrd-info / slices=1 / no-opt-qp-pps / no-opt-ref-list-length-pps / no-multi-pass-opt-rps / scenecut-bias=0.05 / hist-threshold=0.01 / no-opt-cu-delta-qp / no-aq-motion / no-hdr10 / no-hdr10-opt / no-dhdr10-opt / no-idr-recovery-sei / analysis-reuse-level=0 / analysis-save-reuse-level=0 / analysis-load-reuse-level=0 / scale-factor=0 / refine-intra=0 / refine-inter=0 / refine-mv=1 / refine-ctu-distortion=0 / no-limit-sao / ctu-info=0 / no-lowpass-dct / refine-analysis-type=0 / copy-pic=1 / max-ausize-factor=1.0 / no-dynamic-refine / no-single-sei / no-hevc-aq / no-svt / no-field / qp-adaptation-range=1.00 / no-scenecut-aware-qpconformance-window-offsets / right=0 / bottom=0
Default                                  : Yes
Forced                                   : No
Color range                              : Limited
Color primaries                          : BT.709
Transfer characteristics                 : BT.709
Matrix coefficients                      : BT.709

Audio #1
ID                                       : 2
Format                                   : AC-3
Format/Info                              : Audio Coding 3
Commercial name                          : Dolby Digital
Codec ID                                 : A_AC3
Duration                                 : 1 h 18 min
Bit rate mode                            : Constant
Bit rate                                 : 192 kb/s
Channel(s)                               : 2 channels
Channel layout                           : L R
Sampling rate                            : 48.0 kHz
Frame rate                               : 31.250 FPS (1536 SPF)
Compression mode                         : Lossy
Stream size                              : 108 MiB (2%)
Title                                    : / 2.0 Ch / 192 kbps / ПД / Студія LeDoyen
Language                                 : Ukrainian
Service kind                             : Complete Main
Default                                  : Yes
Forced                                   : Yes

Audio #2
ID                                       : 3
Format                                   : AC-3
Format/Info                              : Audio Coding 3
Commercial name                          : Dolby Digital
Codec ID                                 : A_AC3
Duration                                 : 1 h 18 min
Bit rate mode                            : Constant
Bit rate                                 : 192 kb/s
Channel(s)                               : 2 channels
Channel layout                           : L R
Sampling rate                            : 48.0 kHz
Frame rate                               : 31.250 FPS (1536 SPF)
Compression mode                         : Lossy
Stream size                              : 108 MiB (2%)
Title                                    : / 2.0 Ch / 192 kbps / БЗ / Клан Кайзоку
Language                                 : Ukrainian
Service kind                             : Complete Main
Default                                  : No
Forced                                   : No

Audio #3
ID                                       : 4
Format                                   : AC-3
Format/Info                              : Audio Coding 3
Commercial name                          : Dolby Digital
Codec ID                                 : A_AC3
Duration                                 : 1 h 18 min
Bit rate mode                            : Constant
Bit rate                                 : 192 kb/s
Channel(s)                               : 2 channels
Channel layout                           : L R
Sampling rate                            : 48.0 kHz
Frame rate                               : 31.250 FPS (1536 SPF)
Compression mode                         : Lossy
Stream size                              : 108 MiB (2%)
Title                                    : / 2.0 Ch / 192 kbps / ОЗ / Slava Rudik
Language                                 : Ukrainian
Service kind                             : Complete Main
Default                                  : No
Forced                                   : No

Audio #4
ID                                       : 5
Format                                   :
Format/Info                              : Digital Theater Systems
Codec ID                                 : A_DTS
Duration                                 : 1 h 18 min
Bit rate mode                            : Constant
Bit rate                                 : 1 509 kb/s
Channel(s)                               : 6 channels
Channel layout                           : C L R Ls Rs LFE
Sampling rate                            : 48.0 kHz
Frame rate                               : 93.750 FPS (512 SPF)
Bit depth                                : 24 bits
Compression mode                         : Lossy
Stream size                              : 847 MiB (16%)
Title                                    : / 5.1 Ch / 1509 kbps / Original
Language                                 : English
Default                                  : No
Forced                                   : No

Text #1
ID                                       : 6
Format                                   : UTF-8
Codec ID                                 : S_TEXT/UTF8
Codec ID/Info                            : UTF-8 Plain Text
Duration                                 : 1 h 17 min
Bit rate                                 : 93 b/s
Count of elements                        : 1100
Stream size                              : 53.3 KiB (0%)
Title                                    : Full
Language                                 : Ukrainian
Default                                  : Yes
Forced                                   : No

Text #2
ID                                       : 7
Format                                   : UTF-8
Codec ID                                 : S_TEXT/UTF8
Codec ID/Info                            : UTF-8 Plain Text
Duration                                 : 1 h 15 min
Bit rate                                 : 58 b/s
Count of elements                        : 1082
Stream size                              : 31.9 KiB (0%)
Title                                    : Full
Language                                 : English
Default                                  : No
Forced                                   : No

Text #3
ID                                       : 8
Format                                   : UTF-8
Codec ID                                 : S_TEXT/UTF8
Codec ID/Info                            : UTF-8 Plain Text
Duration                                 : 1 h 15 min
Bit rate                                 : 66 b/s
Count of elements                        : 1268
Stream size                              : 36.4 KiB (0%)
Title                                    : SDH
Language                                 : English
Default                                  : No
Forced                                   : No

Text #4
ID                                       : 9
Format                                   : UTF-8
Codec ID                                 : S_TEXT/UTF8
Codec ID/Info                            : UTF-8 Plain Text
Duration                                 : 1 h 18 min
Bit rate                                 : 122 b/s
Count of elements                        : 1511
Stream size                              : 69.9 KiB (0%)
Title                                    : Commentary
Language                                 : English
Default                                  : No
Forced                                   : No

Menu
00:00:00.000                             : en:Opening Credits
00:02:30.316                             : en:The Man Cub
00:04:31.938                             : en:Adopted by Wolves
00:06:07.200                             : en:The Wolf Pack Elders
00:09:42.039                             : en:Kaa Drops in For a S-S-Snack
00:13:04.700                             : en:"Colonel Hathi's March"
00:14:57.563                             : en:Inspection
00:21:05.973                             : en:Mowgli Meets Baloo
00:24:15.662                             : en:Baloo and Mowgli
00:25:14.638                             : en:"The Bare Necessities"
00:29:44.532                             : en:Mowgli is Kidnapped
00:33:46.899                             : en:"I Wan'na Be Like You"
00:39:14.977                             : en:Settling Down For the Night
00:43:47.499                             : en:A Long Walk
00:47:12.621                             : en:Shere Khan, the Hunter
00:52:51.042                             : en:Mowgli on His Own
00:55:15.729                             : en:"Trust in Me"
01:01:04.661                             : en:The Vultures
01:04:20.231                             : en:"That's What Friends Are For"
01:06:49.880                             : en:Mowgli Confronts Shere Khan
01:07:39.638                             : en:A Tiget by the Tail
01:10:15.794                             : en:A Dark Moment
01:13:24.400                             : en:"My Own Home"
01:16:52.357                             : en:Happy Endings For All
Світлини



2. Книга джунглів 2 / The Jungle Book 2 (2003) 1080p H.265 2xUkr/Eng | Sub Eng
Книга джунглів 2 / The Jungle Book 2 (2003) 1080p H.265 2xUkr/Eng | Sub Eng

Книга Джунглів. Дилогія / The Jungle Book. Dilogy (1967, 2003) 1080p H.265 2xUkr/Eng | Sub Eng


Жанр: анімація, сімейний, пригоди
Країна: США, Австралія
Кінокомпанія: Walt Disney Productions, DisneyToon Studios, Walt Disney Animation Australia
Режисер: Стів Тренберт
Актори: Джон Гудман, Хелей Джоел Осмент, Мае Вітман, Коннор Фанк, Боб Джолес, Тоні Джей, Джон Різ-Девіс, Філл Коллінз.

Сюжет:
Продовження неймовірної історії про дивовижного хлопчика, що виріс в джунглях. Після того, як Мауглі повернувся жити в справжню людську сім'ю, він знайшов справжню дружбу і любов, але його минуле життя в джунглях продовжує нагадувати про себе. Малюк скучив за своїми друзями, які залишилися в лісі. Друзі Мауглі на чолі з веселим ведмедиком Балу теж дуже скучили за своїм «жабеням». Але Балу далеко не єдиний, хто жадає побачити «улюбленця джунглів»: тигр Шер Хан хоче поквитатися із зухвалим вискочкою. Хто зустріне Мауглі у джунглях першим - старі друзі або тигр-людожер? Але нашому маленькому героєві не звикати до небезпеки, адже з найскладніших ситуацій він завжди знаходить вихід!

Тривалість: 01:12:16
Якість:

Відео:
кодек: H.265 (HEVC)
розмір кадру: 1828 x 1080
бітрейт: 7 585 кб/с
бітова глибина: 10 біт

Увага! Перед завантаженням переконайтесь, що ваш пристрій відтворення (та/або ПЗ) підтримує H.265 (HEVC)

Аудіо # 1:
мова: українська
переклад: професійний дубльований | Студія LeDoyen
кодек: AC-3 2.0
бітрейт: 192 кб/с

Аудіо # 2:
мова: українська
переклад: багатоголосий закадровий
кодек: AC-3 2.0
бітрейт: 192 кб/с

Аудіо # 3:
мова: англійська
переклад: оригінал
кодек: 5.1
бітрейт: 1511 кб/с

Субтитри # 1: (Full)
мова: англійська
тип: програмні (м'які)
формат: *.srt


Info
Код:
General
Unique ID                                : 184303649088365246657279875012378223450 (0x8AA79777494039AF908EAEFC58B3E35A)
Complete name                            : 2. The Jungle Book 2 (2003) 1080p H.265 [2xUKR_ENG] [Hurtom].
Format                                   :
Format version                           : Version 4
File size                                : 4.79 GiB
Duration                                 : 1 h 12 min
Overall bit rate                         : 9 465 kb/s
Movie name                               : Книга джунглів 2 / The Jungle Book 2 (2003)
Encoded date                             : UTC 2020-06-16 19:27:16
Writing application                      : v20.0.0 ('I Am The Sun') 64-bit
Writing library                          : libebml v1.3.5 + v1.4.8
Cover                                    : Yes
Attachments                              : cover.jpg

Video
ID                                       : 1
Format                                   : HEVC
Format/Info                              : High Efficiency Video Coding
Format profile                           : Main [email protected]@High
Codec ID                                 : V_MPEGH/ISO/HEVC
Duration                                 : 1 h 12 min
Bit rate                                 : 7 585 kb/s
Width                                    : 1 828 pixels
Height                                   : 1 080 pixels
Display aspect ratio                     : 5:3
Frame rate mode                          : Constant
Frame rate                               : 23.976 (23976/1000) FPS
Original frame rate                      : 23.976 (24000/1001) FPS
Color space                              : YUV
Chroma subsampling                       : 4:2:0
Bit depth                                : 10 bits
Bits/(Pixel*Frame)                       : 0.160
Stream size                              : 3.83 GiB (80%)
Title                                    : Книга джунглів 2 / The Jungle Book 2 (2003)
Writing library                          : x265 3.3+1-g554c887ac:[Windows][MSVC 1924][64 bit] 10bit
Encoding settings                        : cpuid=1111039 / frame-threads=3 / numa-pools=12 / wpp / no-pmode / no-pme / no-psnr / no-ssim / log-level=2 / input-csp=1 / input-res=1828x1080 / interlace=0 / total-frames=103965 / level-idc=41 / high-tier=1 / uhd-bd=0 / ref=5 / no-allow-non-conformance / no-repeat-headers / annexb / no-aud / no-hrd / info / hash=0 / no-temporal-layers / open-gop / min-keyint=23 / keyint=240 / gop-lookahead=0 / bframes=9 / b-adapt=2 / b-pyramid / bframe-bias=0 / rc-lookahead=60 / lookahead-slices=4 / scenecut=40 / hist-scenecut=0 / radl=0 / no-splice / no-intra-refresh / ctu=32 / min-cu-size=8 / rect / amp / max-tu-size=32 / tu-inter-depth=4 / tu-intra-depth=4 / limit-tu=1 / rdoq-level=2 / dynamic-rd=0.00 / no-ssim-rd / signhide / no-tskip / nr-intra=0 / nr-inter=0 / no-constrained-intra / no-strong-intra-smoothing / max-merge=4 / limit-refs=2 / limit-modes / me=3 / subme=7 / merange=57 / temporal-mvp / no-frame-dup / no-hme / weightp / weightb / no-analyze-src-pics / deblock=-3:-3 / no-sao / no-sao-non-deblock / rd=6 / selective-sao=0 / no-early-skip / no-rskip / no-fast-intra / no-tskip-fast / no-cu-lossless / no-b-intra / no-splitrd-skip / rdpenalty=0 / psy-rd=2.00 / psy-rdoq=1.00 / no-rd-refine / no-lossless / cbqpoffs=0 / crqpoffs=0 / rc=crf / crf=19.0 / qcomp=0.60 / qpstep=4 / stats-write=0 / stats-read=0 / vbv-maxrate=50000 / vbv-bufsize=50000 / vbv-init=0.9 / crf-max=0.0 / crf-min=0.0 / ipratio=1.40 / pbratio=1.30 / aq-mode=1 / aq-strength=1.00 / no-cutree / zone-count=0 / no-strict-cbr / qg-size=32 / no-rc-grain / qpmax=69 / qpmin=0 / no-const-vbv / sar=1 / overscan=0 / videoformat=5 / range=0 / colorprim=1 / transfer=1 / colormatrix=1 / chromaloc=0 / display-window=0 / cll=0,0 / min-luma=0 / max-luma=1023 / log2-max-poc-lsb=8 / vui-timing-info / vui-hrd-info / slices=1 / no-opt-qp-pps / no-opt-ref-list-length-pps / no-multi-pass-opt-rps / scenecut-bias=0.05 / hist-threshold=0.01 / no-opt-cu-delta-qp / no-aq-motion / no-hdr10 / no-hdr10-opt / no-dhdr10-opt / no-idr-recovery-sei / analysis-reuse-level=0 / analysis-save-reuse-level=0 / analysis-load-reuse-level=0 / scale-factor=0 / refine-intra=0 / refine-inter=0 / refine-mv=1 / refine-ctu-distortion=0 / no-limit-sao / ctu-info=0 / no-lowpass-dct / refine-analysis-type=0 / copy-pic=1 / max-ausize-factor=1.0 / no-dynamic-refine / no-single-sei / no-hevc-aq / no-svt / no-field / qp-adaptation-range=1.00 / no-scenecut-aware-qpconformance-window-offsets / right=0 / bottom=0
Default                                  : Yes
Forced                                   : No
Color range                              : Limited
Color primaries                          : BT.709
Transfer characteristics                 : BT.709
Matrix coefficients                      : BT.709

Audio #1
ID                                       : 2
Format                                   : AC-3
Format/Info                              : Audio Coding 3
Commercial name                          : Dolby Digital
Codec ID                                 : A_AC3
Duration                                 : 1 h 12 min
Bit rate mode                            : Constant
Bit rate                                 : 192 kb/s
Channel(s)                               : 2 channels
Channel layout                           : L R
Sampling rate                            : 48.0 kHz
Frame rate                               : 31.250 FPS (1536 SPF)
Compression mode                         : Lossy
Stream size                              : 99.2 MiB (2%)
Title                                    : / 2.0 Ch / 192 kbps / ПД / K1 / Студія LeDoyen
Language                                 : Ukrainian
Service kind                             : Music and Effects
Default                                  : Yes
Forced                                   : Yes

Audio #2
ID                                       : 3
Format                                   : AC-3
Format/Info                              : Audio Coding 3
Commercial name                          : Dolby Digital
Codec ID                                 : A_AC3
Duration                                 : 1 h 12 min
Bit rate mode                            : Constant
Bit rate                                 : 192 kb/s
Channel(s)                               : 2 channels
Channel layout                           : L R
Sampling rate                            : 48.0 kHz
Frame rate                               : 31.250 FPS (1536 SPF)
Compression mode                         : Lossy
Stream size                              : 99.2 MiB (2%)
Title                                    : / 2.0 Ch / 192 kbps / БЗ / 1+1
Language                                 : Ukrainian
Service kind                             : Music and Effects
Default                                  : No
Forced                                   : No

Audio #3
ID                                       : 4
Format                                   :
Format/Info                              : Digital Theater Systems
Codec ID                                 : A_DTS
Duration                                 : 1 h 12 min
Bit rate mode                            : Constant
Bit rate                                 : 1 510 kb/s
Channel(s)                               : 6 channels
Channel layout                           : C L R Ls Rs LFE
Sampling rate                            : 48.0 kHz
Frame rate                               : 93.750 FPS (512 SPF)
Bit depth                                : 24 bits
Compression mode                         : Lossy
Stream size                              : 782 MiB (16%)
Title                                    : / 5.1 Ch / 1509 kbps / Original
Language                                 : English
Default                                  : No
Forced                                   : No

Text
ID                                       : 5
Format                                   : UTF-8
Codec ID                                 : S_TEXT/UTF8
Codec ID/Info                            : UTF-8 Plain Text
Duration                                 : 1 h 11 min
Bit rate                                 : 48 b/s
Count of elements                        : 927
Stream size                              : 25.4 KiB (0%)
Title                                    : Full
Language                                 : English
Default                                  : No
Forced                                   : No

Menu
00:00:00.000                             : en:Opening: Shadow Play
00:03:59.530                             : en:You Can Take the Boy Out of the Jungle...
00:07:12.682                             : en:Jungle Rhythm
00:13:21.634                             : en:Missing Mowgli
00:19:28.458                             : en:Shere Khan
00:25:35.951                             : en:The Bare Necessities
00:28:51.438                             : en:Into the Jungle
00:33:29.257                             : en:Retreat!
00:35:06.604                             : en:This is the Life
00:40:36.308                             : en:Lucky
00:43:01.453                             : en:W-I-L-D
00:47:31.557                             : en:Finding Mowgli
00:51:44.643                             : en:Run!
00:54:50.704                             : en:The Ruins
00:59:15.802                             : en:Back to the Village
01:03:55.498                             : en:Yeah, Man!/End Credits
01:12:15.706                             : en:01:12:15.706
Світлини




Джерело: &
Особиста оцінка: 10 - без зайвих вагань рекомендую всім!


Срібний реліз (на рейтинг впливає 50% завантаженого)
 Трекер:    Зареєстрований   

Завантажити / скачати мультфільм українською



відео для новачків



 Зареєстрований:   2020-06-24 21:49
 Розмір:   9.89 GB 
 Оцінка мультфільму:   10/10 (Голосів: 7)
   
Ваш часовий пояс: GMT + 2 Години

Нова тема   Відповісти