Алієніст (Сезон 1, серія 1-3) / The Alienist (Season 1, episodes 1-3) (2018) 1080 Ukr/Eng | Sub Ukr/Eng

Нові коментарі

Нова тема   Відповісти
Автор Повідомлення
dragheart 
Свій


З нами з: 27.01.16
Востаннє: 05.07.20
Повідомлень: 105

2020-06-24 15:22  
Алієніст (Сезон 1, серія 1-3) / The Alienist (Season 1, episodes 1-3) (2018) 1080 Ukr/Eng | Sub Ukr/Eng

Алієніст (Сезон 1, серія 1-3) / The Alienist (Season 1, episodes 1-3) (2018) 1080 Ukr/Eng | Sub Ukr/Eng


Подяка за постер : mrgalser


Жанр: драма, кримінальний, психологічний, трилер
Країна: США



Кінокомпанія: Paramount Television, TNT, Studio T, Anonymous Content, Vanessa Productions, Ltd.
Режисер: Якоб Вербрюґґен, Пако Кабезас, Джеймс Гейвз, Джеймі Пейн, Девід Петрарка
Актори: Даніель Брюль, Дакота Феннінг, Люк Еванс, Браян Ґераті, Роберт Рей Віздом, Даґлес Сміт, К’оріанка Кілчер, Метью Шир, Метт Лінц, Девід Вілмот та інші.

Сюжет:
1896 рік. В Нью-Йорку відбуваються жорстокі вбивства дітей, але поліція не поспішає з пошуками вбивці. Після чергового випадку за справу беруться психіатр-алієніст Ласло Крайцлер і його друг Джон Мур. Комісар поліції Теодор Рузвельт не може відкрито підтримати це розслідування, але дозволяє приєднатися до них своїй помічниці Сарі Говарді детективам братам Айзексонам.
За мотивами однойменного роману Калеба Карра.


Застереження: натуралізм, оголеність, дитяча проституція, педофілія.
Вікова категорія: 16+

Тривалість: 1 серія: 43-53 хв (цілком серій: 10)
Перелік серій
01. The Boy on the Bridge / Хлопчик на мості
02. A Fruitful Partnership / Плідне співробітництво
03. Silver Smile / Срібна усмішка
04. These Bloody Thoughts / Оті криваві заміри
05. Hildebrandt's Starling / Шпак Гільдебрандта
06. Ascension / Вознесіння
07. Many Sainted Men / Праведники
08. Psychopathia Sexualis / Статева психопатія
09. Requiem / Реквієм
10. Castle in the Sky / Замок в небесах
Якість:
Відео:
кодек:
розмір кадру: 1920 х 1080
бітрейт: 6 059 кб/с

Аудіо # 1:
мова: українська
переклад: багатоголосий закадровий
кодек: 5.1
бітрейт: 384 кб/с
ролі озвучують: Olegolas, Artymko, Rainy984
таймінг: KohinSan

Аудіо # 2:
мова: англійська (ідиш, італійська, німецька, угорська – окремі репліки)
переклад: оригінал
кодек: E- 5.1
бітрейт: 640 кб/с

Субтитри:
мова: українська
тип: програмні (м'які)
формат: *.
перекладач: wolesj

Субтитри:
мова: англійська
тип: програмні (м'які)
формат: *.srt

Info
Код:
General
Unique ID                                : 130068558490578571380150098110452784666 (0x61DA4B0CAAAE1764F51CBAECC44EDE1A)
Complete name                            : F:\The Alienist.S01.2018..Eng.Ukr\The Alienist.S01.E01.2018..Eng.Ukr.
Format                                   :
Format version                           : Version 4 / Version 2
File size                                : 2.44 GiB
Duration                                 : 48mn 16s
Overall bit rate mode                    : Variable
Overall bit rate                         : 7 226 Kbps
Encoded date                             : UTC 2020-06-23 17:11:02
Writing application                      : v23.0.0 ('The Bride Said No') 64-bit
Writing library                          : libebml v1.3.6 + v1.4.9
DURATION                                 : 00:48:16.576000000
NUMBER_OF_FRAMES                         : 90518
NUMBER_OF_BYTES                          : 139035648
_STATISTICS_WRITING_APP                  : v23.0.0 ('The Bride Said No') 64-bit
_STATISTICS_WRITING_DATE_UTC             : 2020-06-23 17:11:02
_STATISTICS_TAGS                         : BPS DURATION NUMBER_OF_FRAMES NUMBER_OF_BYTES

Video
ID                                       : 1
Format                                   : AVC
Format/Info                              : Advanced Video Codec
Format profile                           : [email protected]
Format settings, CABAC                   : Yes
Format settings, ReFrames                : 4 frames
Codec ID                                 : V_MPEG4/ISO/AVC
Duration                                 : 48mn 16s
Bit rate mode                            : Variable
Bit rate                                 : 6 059 Kbps
Maximum bit rate                         : 15.0 Mbps
Width                                    : 1 920 pixels
Height                                   : 1 080 pixels
Display aspect ratio                     : 16:9
Frame rate                               : 23.976 fps
Color space                              : YUV
Chroma subsampling                       : 4:2:0
Bit depth                                : 8 bits
Scan type                                : Progressive
Bits/(Pixel*Frame)                       : 0.122
Stream size                              : 2.04 GiB (84%)
Default                                  : Yes
Forced                                   : No
Color primaries                          : BT.709-5, BT.1361, IEC 61966-2-4, SMPTE RP177
Transfer characteristics                 : BT.709-5, BT.1361
Matrix coefficients                      : BT.709-5, BT.1361, IEC 61966-2-4 709, SMPTE RP177

Audio #1
ID                                       : 2
Format                                   : AC-3
Format/Info                              : Audio Coding 3
Mode extension                           : CM (complete main)
Codec ID                                 : A_AC3
Duration                                 : 48mn 16s
Bit rate mode                            : Constant
Bit rate                                 : 384 Kbps
Channel(s)                               : 6 channels
Channel positions                        : Front: L C R, Side: L R, LFE
Sampling rate                            : 48.0 KHz
Bit depth                                : 16 bits
Compression mode                         : Lossy
Stream size                              : 133 MiB (5%)
Language                                 : Ukrainian
Default                                  : Yes
Forced                                   : No

Audio #2
ID                                       : 3
Format                                   : E-AC-3
Format/Info                              : Audio Coding 3
Codec ID                                 : A_EAC3
Duration                                 : 48mn 16s
Bit rate mode                            : Constant
Bit rate                                 : 640 Kbps
Channel(s)                               : 6 channels
Channel positions                        : Front: L C R, Side: L R, LFE
Sampling rate                            : 48.0 KHz
Compression mode                         : Lossy
Stream size                              : 221 MiB (9%)
Title                                    : Original
Language                                 : English
Default                                  : No
Forced                                   : No

Text #1
ID                                       : 4
Format                                   :
Codec ID                                 : S_TEXT/
Codec ID/Info                            : Advanced Sub Station Alpha
Compression mode                         : Lossless
Title                                    : українська
Language                                 : Ukrainian
Default                                  : Yes
Forced                                   : Yes

Text #2
ID                                       : 5
Format                                   : UTF-8
Codec ID                                 : S_TEXT/UTF8
Codec ID/Info                            : UTF-8 Plain Text
Title                                    : English
Language                                 : English
Default                                  : No
Forced                                   : No
Скріншоти





Джерело:
Особиста оцінка: 10 - без зайвих вагань рекомендую всім!


Авторський реліз (завантажувати можна без реєстрації)
 Трекер:    Зареєстрований   

Завантажити / скачати серіал українською



відео для новачків



 Зареєстрований:   2020-07-04 18:54
 Розмір:   6.95 GB 
 Оцінка серіалу:   10/10 (Голосів: 8)
   
dragheart 
Свій


З нами з: 27.01.16
Востаннє: 05.07.20
Повідомлень: 105

2020-06-29 17:51  
Додано 2-у серію
waldi-hurtom 
VIP


З нами з: 07.10.12
Востаннє: 08.07.20
Повідомлень: 1151

2020-06-29 20:02  
Алієніст? Серйозно? А про наявність словників перекладач не чув? Слова психіатр перекладач не знає? Тепер сірожа брін перекладає для толоки? кейси, скілзи - скільки можна?
dragheart 
Свій


З нами з: 27.01.16
Востаннє: 05.07.20
Повідомлень: 105

2020-07-04 18:56  
Додано 3-ю серію
dragheart 
Свій


З нами з: 27.01.16
Востаннє: 05.07.20
Повідомлень: 105

2020-07-04 22:15  
Цитата:
Алієніст? Серйозно? А про наявність словників перекладач не чув? Слова психіатр перекладач не знає?

Якби автори мали намір назвати серіал "Психіатр", гадаю вони так і назвали б його "Psychiatrist"

Ваш часовий пояс: GMT + 2 Години

Нова тема   Відповісти