Дворецький / The Butler (2013) AVC Ukr/Eng | sub Eng

Нові коментарі

Нова тема   Відповісти
Автор Повідомлення
Arsenfpu 
Відео Гуртом - фільмокрай
Відео Гуртом - фільмокрай


З нами з: 30.04.09
Востаннє: 05.08.20
Повідомлень: 7115

2020-06-24 09:14  
Дворецький / The Butler (2013) AVC Ukr/Eng | sub Eng

Дворецький / The Butler (2013) AVC Ukr/Eng | sub Eng


Жанр: драма, біографічний
Країна: США



Кінокомпанія: Follow Through Productions, Salamander Pictures, Laura Ziskin Productions
Режисер: Лі Деніелс
Актори: Форест Вітакер, Опра Вінфрі, Кьюба Гудінг мол., Девід Ойелоуо, Терренс Говард, Робін Вільямс, Лів Шрайбер, Алан Рікман, Джон Кьюсак, Девід Баннер, Ленні Кравіц, Джейн Фонда, Ванесса Редгрейв, Майкл Рейні мол., ЛаДжессі Сміт, Мерая Кері, Алекс Петтіфер, АМЛ Амін, Кларенс Вільямс III, Джон П. Фертітта

Сюжет:
У фільмі, заснованому на статті з Washington Post, розповідається про дворецького Юджина Аллена, який служив в Білому Домі під керівництвом восьми різних президентів.


Тривалість: 02:12:06
Якість:
Відео:
кодек:
розмір кадру: 1024x554
бітрейт: 1919 кб/с

Аудіо # 1:
мова: українська
переклад: багатоголосий закадровий
кодек: 2.0
бітрейт: 192 кб/с

Аудіо # 2:
мова: англійська
переклад: оригінал
кодек: 2.0
бітрейт: 192 кб/с

Субтитри:
мова: англійська
тип: програмні (м'які)
формат: *.srt
Скріншоти














Про файл
General
Unique ID : 225259413482435884016925365471867150546 (0xA977628D44D90E337A006F0A47CDA0D2)
Complete name : C:\The Butler (2013) [Ukr,Eng] AVC [Hurtom].
Format :
Format version : Version 4 / Version 2
File size : 2.12 GiB
Duration : 2 h 12 min
Overall bit rate : 2 302 kb/s
Movie name : Дворецький / The Butler (2013)
Encoded date : UTC 2020-06-24 18:47:38
Writing application : v21.0.0 ('Tardigrades Will Inherit The Earth') 32-bit
Writing library : libebml v1.3.5 + v1.4.8
Cover : Yes
Attachments : cover.jpg

Video
ID : 1
Format : AVC
Format/Info : Advanced Video Codec
Format profile : [email protected]
Format settings, CABAC : Yes
Format settings, ReFrames : 8 frames
Codec ID : V_MPEG4/ISO/AVC
Duration : 2 h 12 min
Bit rate : 1 919 kb/s
Width : 1 024 pixels
Height : 554 pixels
Display aspect ratio : 1.85:1
Frame rate mode : Constant
Frame rate : 23.976 (24000/1001) FPS
Color space : YUV
Chroma subsampling : 4:2:0
Bit depth : 8 bits
Scan type : Progressive
Bits/(Pixel*Frame) : 0.141
Stream size : 1.77 GiB (83%)
Writing library : core 138 r2356 a1d3d17
Encoding settings : cabac=1 / ref=8 / deblock=1:-3:-2 / analyse=0x3:0x113 / me=umh / subme=10 / psy=1 / psy_rd=1.00:0.05 / mixed_ref=1 / me_range=32 / chroma_me=1 / trellis=2 / 8x8dct=1 / cqm=0 / deadzone=21,11 / fast_pskip=0 / chroma_qp_offset=-3 / threads=9 / lookahead_threads=1 / sliced_threads=0 / nr=0 / decimate=0 / interlaced=0 / bluray_compat=0 / constrained_intra=0 / bframes=8 / b_pyramid=2 / b_adapt=2 / b_bias=0 / direct=3 / weightb=1 / open_gop=0 / weightp=2 / keyint=240 / keyint_min=24 / scenecut=40 / intra_refresh=0 / rc_lookahead=40 / rc=2pass / mbtree=1 / bitrate=1919 / ratetol=1.0 / qcomp=0.60 / qpmin=0 / qpmax=69 / qpstep=4 / cplxblur=20.0 / qblur=0.5 / ip_ratio=1.40 / aq=1:1.00
Language : English
Default : Yes
Forced : No

Audio #1
ID : 2
Format : AC-3
Format/Info : Audio Coding 3
Mode extension : CM (complete main)
Format settings, Endianness : Big
Codec ID : A_AC3
Duration : 2 h 12 min
Bit rate mode : Constant
Bit rate : 192 kb/s
Channel(s) : 2 channels
Channel positions : Front: L R
Sampling rate : 48.0 kHz
Frame rate : 31.250 FPS (1536 spf)
Compression mode : Lossy
Stream size : 181 MiB (8%)
Title : amc
Language : Ukrainian
Default : Yes
Forced : Yes

Audio #2
ID : 3
Format : AC-3
Format/Info : Audio Coding 3
Mode extension : CM (complete main)
Format settings, Endianness : Big
Codec ID : A_AC3
Duration : 2 h 12 min
Bit rate mode : Constant
Bit rate : 192 kb/s
Channel(s) : 2 channels
Channel positions : Front: L R
Sampling rate : 48.0 kHz
Frame rate : 31.250 FPS (1536 spf)
Compression mode : Lossy
Stream size : 181 MiB (8%)
Language : English
Default : No
Forced : No

Text
ID : 4
Format : UTF-8
Codec ID : S_TEXT/UTF8
Codec ID/Info : UTF-8 Plain Text
Duration : 2 h 4 min
Bit rate : 77 b/s
Count of elements : 1848
Stream size : 70.8 KiB (0%)
Language : English
Default : No
Forced : No
Джерело:
Особиста оцінка: не дивився


 Трекер:    Зареєстрований   

Завантажити / скачати фільм українською



відео для новачків



 Зареєстрований:   2020-06-24 22:27
 Розмір:   2.12 GB 
 Оцінка фільму:   8.6/10 (Голосів: 10)
   
Інші релізи
   Дворецький / The Butler (2013) 1080p Ukr/Eng | Sub Ukr/Eng kryk-v.ya.  2 / 0   15.41 GB   2020-06-27 15:45 
bot 
робот


З нами з: 30.09.07
Востаннє: 26.05.05
Повідомлень: 25168

2020-06-24 22:27  
Тему перенесено з Анонси релізів до форуму Фільми


Arsenfpu

kryk-v.ya. 
Попереджень: 1
Попереджень: 1 


З нами з: 14.02.14
Востаннє: 05.08.20
Повідомлень: 2154

2020-06-25 16:50  
зроблю 1080р.
Ваш часовий пояс: GMT + 2 Години

Нова тема   Відповісти