Подарунок / The Gift (2015) 1080p Ukr/Eng | Sub Eng

Нові коментарі

Нова тема   Відповісти
Автор Повідомлення
Anonymous 







2020-06-23 22:41  
Подарунок / The Gift (2015) 1080p Ukr/Eng | Sub Eng


Альтернативні постери:





Жанр: містика, трилер
Країна: Австралія, США



Кінокомпанія: Blue-Tongue Films, Blumhouse Productions
Режисер: Джоел Едґертон / Joel Edgerton
Актори: Джоел Едґертон / Joel Edgerton, Джейсон Бейтман / Jason Bateman, Ребекка Голл / Rebecca Hall, Бьюзі Філіппс / Busy Philipps, Кетрін Аселтон / Kathryn Aselton, Девід Денман / David Denman, Тім Ґріффін / Tim Griffin, Еллісон Толман / Allison Tolman, Венделл Пірс / Wendell Pierce та інші

Сюжет:
Головні події трилера відбуваються в будинку, який нещодавно придбала подружня пара. Саймон (Джейсон Бейтман) і Робін (Ребекка Холл) молодята, які з оптимізмом дивляться в майбутнє. Випадкова зустріч з Гордо (Джоел Едгертон), колишнім однокласником Саймона, призводить до подій, які руйнують розмірене життя подружжя. Спершу сором'язливий і незграбний, а згодом все більш нав'язливий, Гордо з кожним днем сміливіше втручається у життя Саймона та Робін. Що пов'язує однокласників і чому Гордо вважає доречною таку свою поведінку?

Тривалість: 01:48:12
Якість: 1080p
Відео:
Кодек:
Розмір кадру: 1920 x 800
Бітрейт: 14.9 Мбіт/с

Аудіо 1:
Мова: українська
Переклад: багатоголосий закадровий [Megogo]

Кодек: 2.0
Бітрейт: 192 Кбіт/с

Аудіо 2:
Мова: англійська
Переклад: Оригінал
Кодек: 5.1
Бітрейт: 1509 Кбіт/с

Субтитри:
Мова: англійська | Повні | SDH
Тип: програмні (м'які)
Формат: *.srt

Info


General
Unique ID : 306617903450040700424059420066050594095 (0xE6AC75CDF609C3A3F6260E88EC99D52F)
Format :
Format version : Version 4
File size : 12.5 GiB
Duration : 1 h 48 min
Overall bit rate : 16.6 Mb/s
Movie name : The Gift (2015) 1080p UkrEng SubEng [Hurtom]
Encoded date : UTC 2020-06-23 19:17:25
Writing application : v46.0.0 ('No Deeper Escape') 64-bit
Writing library : libebml v1.3.10 + v1.5.2
Attachments : poster_ukr.jpg / poster_eng.jpg

Video
ID : 1
Format : AVC
Format/Info : Advanced Video Codec
Format profile : [email protected]
Format settings : CABAC / 5 Ref Frames
Format settings, CABAC : Yes
Format settings, Reference fra : 5 frames
Codec ID : V_MPEG4/ISO/AVC
Duration : 1 h 48 min
Bit rate : 14.9 Mb/s
Width : 1 920 pixels
Height : 800 pixels
Display aspect ratio : 2.40:1
Frame rate mode : Constant
Frame rate : 23.976 (24000/1001) FPS
Color space : YUV
Chroma subsampling : 4:2:0
Bit depth : 8 bits
Scan type : Progressive
Bits/(Pixel*Frame) : 0.404
Stream size : 11.2 GiB (90%)
Title : The Gift (2015) 1080p
Writing library : core 157 r2935 545de2f
Encoding settings : cabac=1 / ref=5 / deblock=1:-3:-3 / analyse=0x3:0x133 / me=umh / subme=10 / psy=1 / psy_rd=1.00:0.00 / mixed_ref=1 / me_range=24 / chroma_me=1 / trellis=2 / 8x8dct=1 / cqm=0 / deadzone=21,11 / fast_pskip=0 / chroma_qp_offset=-2 / threads=18 / lookahead_threads=3 / sliced_threads=0 / nr=0 / decimate=1 / interlaced=0 / bluray_compat=0 / constrained_intra=0 / bframes=8 / b_pyramid=2 / b_adapt=2 / b_bias=0 / direct=3 / weightb=1 / open_gop=0 / weightp=2 / keyint=240 / keyint_min=24 / scenecut=40 / intra_refresh=0 / rc_lookahead=60 / rc=crf / mbtree=1 / crf=15.8 / qcomp=0.60 / qpmin=0 / qpmax=69 / qpstep=4 / vbv_maxrate=62500 / vbv_bufsize=78125 / crf_max=0.0 / nal_hrd=none / filler=0 / ip_ratio=1.40 / aq=1:1.00
Language : English
Default : Yes
Forced : No
Color range : Limited
Color primaries : BT.709
Transfer characteristics : BT.709
Matrix coefficients : BT.709

Audio #1
ID : 2
Format : AC-3
Format/Info : Audio Coding 3
Commercial name : Dolby Digital
Codec ID : A_AC3
Duration : 1 h 48 min
Bit rate mode : Constant
Bit rate : 192 kb/s
Channel(s) : 2 channels
Channel layout : L R
Sampling rate : 48.0 kHz
Frame rate : 31.250 FPS (1536 SPF)
Compression mode : Lossy
Stream size : 149 MiB (1%)
Title : MVO [Megogo] 2.0 @ 192 Кбіт/с
Language : Ukrainian
Service kind : Complete Main
Default : Yes
Forced : No

Audio #2
ID : 3
Format :
Format/Info : Digital Theater Systems
Codec ID : A_DTS
Duration : 1 h 48 min
Bit rate mode : Constant
Bit rate : 1 509 kb/s
Channel(s) : 6 channels
Channel layout : C L R Ls Rs LFE
Sampling rate : 48.0 kHz
Frame rate : 93.750 FPS (512 SPF)
Bit depth : 24 bits
Compression mode : Lossy
Stream size : 1.14 GiB (9%)
Title : [Оригінал] 5.1 @ 1509 Кбіт/с
Language : English
Default : No
Forced : No

Text #1
ID : 4
Format : UTF-8
Codec ID : S_TEXT/UTF8
Codec ID/Info : UTF-8 Plain Text
Duration : 1 h 38 min
Bit rate : 64 b/s
Count of elements : 1430
Stream size : 46.4 KiB (0%)
Title : Повні
Language : English
Default : No
Forced : No

Text #2
ID : 5
Format : UTF-8
Codec ID : S_TEXT/UTF8
Codec ID/Info : UTF-8 Plain Text
Duration : 1 h 38 min
Bit rate : 66 b/s
Count of elements : 1475
Stream size : 48.4 KiB (0%)
Title : SDH
Language : English
Default : No
Forced : No

Menu
00:00:00.000 : en:00:00:00.000
00:05:55.355 : en:00:05:55.355
00:09:36.993 : en:00:09:36.993
00:18:31.027 : en:00:18:31.027
00:23:41.670 : en:00:23:41.670
00:28:26.079 : en:00:28:26.079
00:34:30.568 : en:00:34:30.568
00:39:48.428 : en:00:39:48.428
00:44:23.995 : en:00:44:23.995
00:49:57.203 : en:00:49:57.203
00:55:54.309 : en:00:55:54.309
01:01:51.291 : en:01:01:51.291
01:05:24.212 : en:01:05:24.212
01:11:21.736 : en:01:11:21.736
01:17:12.503 : en:01:17:12.503
01:21:44.274 : en:01:21:44.274
01:26:29.059 : en:01:26:29.059
01:30:06.276 : en:01:30:06.276
01:37:55.036 : en:01:37:55.036
01:42:56.629 : en:01:42:56.629
Скріншоти









Джерело:


 Трекер:    Зареєстрований   

Завантажити / скачати фільм українською



відео для новачків



 Зареєстрований:   2020-06-23 22:41
 Розмір:   12.53 GB 
 Оцінка фільму:   8.2/10 (Голосів: 5)
   
Інші релізи
   Подарунок / The Gift (2015) AVC patriot2305  5 / 0   1.54 GB   2015-11-19 21:42 
   Подарунок / The Gift (2015) 720p Ukr/Eng | Sub Eng 11FrYkT  1 / 0   4.17 GB   2015-11-19 21:39 
   Подарунок / The Gift (2015) Gelios  3 / 0   1.45 GB   2015-11-19 21:39 
Ваш часовий пояс: GMT + 2 Години

Нова тема   Відповісти