День патріота / Patriots Day (2016) 1080p Ukr/Eng | Sub Eng

Нові коментарі

Нова тема   Відповісти
Останній раз роздавалося Timm (2020-10-01)
Автор Повідомлення
Anonymous 







2020-06-23 21:55  
День патріота / Patriots Day (2016) 1080p Ukr/Eng | Sub Eng


Альтернативні українські та оригінальні постери:








Жанр: драма, кримінальний, історичний, трилер
Країна: Гонконг, США



Кінокомпанія: Bluegrass Films, CBS Films, Closest to the Hole Productions
Режисер: Пітер Берґ
Актори: Марк Волберґ, Мішель Монаген, Дж. К. Сіммонс, Джон Ґудмен, Кевін Бейкон, Мелісса Бенойст, Рейчел Броснахен, Кліфф Мойлан, Алекс Вулф та інші

Сюжет:
Погляд на бостонську трагедію 2013 року очима комісара поліції Еда Девіса. Два вибухи на марафонському забігу оглушили світову громадськість, але не Еда і його колег, які розгортають розшук терористів по гарячих слідах.


Тривалість: 02:13:09
Якість: 1080p
Відео:
Кодек:
Розмір кадру: 1920 x 800
Бітрейт: 13.9 Мбіт/с

Аудіо #1:
Мова: українська
Переклад: багатоголосий закадровий [2+2]

Кодек: 2.0
Бітрейт: 192 Кбіт/с

Аудіо #2:
Мова: англійська
Переклад: Оригінал
Кодек: 5.1
Бітрейт: 1509 Кбіт/с

Субтитри:
Мова: англійська | Повні | SDH
Тип: програмні (м'які)
Формат: *.srt

Info


General
Unique ID : 75860861115934639147902565720904040327 (0x3912453921D6F930AE1B1B446AB9FF87)
Format :
Format version : Version 4
File size : 14.8 GiB
Duration : 2 h 13 min
Overall bit rate : 15.9 Mb/s
Movie name : Patriots Day (2016) 1080p [UkrEng][SubrEng] [Hurtom]
Encoded date : UTC 2020-06-23 18:32:54
Writing application : v46.0.0 ('No Deeper Escape') 64-bit
Writing library : libebml v1.3.10 + v1.5.2
Attachments : poster_ukr1.jpg / poster_ukr2.jpg / poster_eng1.jpg / poster_eng2.jpg / poster_eng3.jpg

Video
ID : 1
Format : AVC
Format/Info : Advanced Video Codec
Format profile : [email protected]
Format settings : CABAC / 5 Ref Frames
Format settings, CABAC : Yes
Format settings, Reference fra : 5 frames
Codec ID : V_MPEG4/ISO/AVC
Duration : 2 h 13 min
Bit rate : 14.2 Mb/s
Width : 1 920 pixels
Height : 800 pixels
Display aspect ratio : 2.40:1
Frame rate mode : Constant
Frame rate : 23.976 (24000/1001) FPS
Color space : YUV
Chroma subsampling : 4:2:0
Bit depth : 8 bits
Scan type : Progressive
Bits/(Pixel*Frame) : 0.386
Stream size : 13.2 GiB (89%)
Title : Patriots Day (2016) 1080p
Writing library : core 157 r2935 545de2f
Encoding settings : cabac=1 / ref=5 / deblock=1:-3:-3 / analyse=0x3:0x133 / me=umh / subme=10 / psy=1 / psy_rd=1.00:0.00 / mixed_ref=1 / me_range=24 / chroma_me=1 / trellis=2 / 8x8dct=1 / cqm=0 / deadzone=21,11 / fast_pskip=0 / chroma_qp_offset=-2 / threads=18 / lookahead_threads=3 / sliced_threads=0 / nr=0 / decimate=1 / interlaced=0 / bluray_compat=0 / constrained_intra=0 / bframes=8 / b_pyramid=2 / b_adapt=2 / b_bias=0 / direct=3 / weightb=1 / open_gop=0 / weightp=2 / keyint=240 / keyint_min=24 / scenecut=40 / intra_refresh=0 / rc_lookahead=60 / rc=crf / mbtree=1 / crf=17.2 / qcomp=0.60 / qpmin=0 / qpmax=69 / qpstep=4 / vbv_maxrate=62500 / vbv_bufsize=78125 / crf_max=0.0 / nal_hrd=none / filler=0 / ip_ratio=1.40 / aq=1:1.00
Language : English
Default : Yes
Forced : No
Color range : Limited
Color primaries : BT.709
Transfer characteristics : BT.709
Matrix coefficients : BT.709

Audio #1
ID : 2
Format : AC-3
Format/Info : Audio Coding 3
Commercial name : Dolby Digital
Codec ID : A_AC3
Duration : 2 h 13 min
Bit rate mode : Constant
Bit rate : 192 kb/s
Channel(s) : 2 channels
Channel layout : L R
Sampling rate : 48.0 kHz
Frame rate : 31.250 FPS (1536 SPF)
Compression mode : Lossy
Stream size : 183 MiB (1%)
Title : DVO [2+2] 2.0 @ 192 Кбіт/с
Language : Ukrainian
Service kind : Complete Main
Default : Yes
Forced : No

Audio #2
ID : 3
Format :
Format/Info : Digital Theater Systems
Codec ID : A_DTS
Duration : 2 h 13 min
Bit rate mode : Constant
Bit rate : 1 509 kb/s
Channel(s) : 6 channels
Channel layout : C L R Ls Rs LFE
Sampling rate : 48.0 kHz
Frame rate : 93.750 FPS (512 SPF)
Bit depth : 24 bits
Compression mode : Lossy
Stream size : 1.40 GiB (9%)
Title : [Оригінал] 5.1 @ 1509 Кбіт/с
Language : English
Default : No
Forced : No

Text #1
ID : 4
Format : UTF-8
Codec ID : S_TEXT/UTF8
Codec ID/Info : UTF-8 Plain Text
Duration : 2 h 12 min
Bit rate : 72 b/s
Count of elements : 1874
Stream size : 69.9 KiB (0%)
Title : Повні
Language : English
Default : No
Forced : No

Text #2
ID : 5
Format : UTF-8
Codec ID : S_TEXT/UTF8
Codec ID/Info : UTF-8 Plain Text
Duration : 2 h 12 min
Bit rate : 82 b/s
Count of elements : 2024
Stream size : 79.6 KiB (0%)
Title : SDH
Language : English
Default : No
Forced : No

Menu
00:00:00.000 : en:00:00:00.000 / en:Глава 01
00:08:30.509 : en:00:08:30.509
00:17:48.067 : en:00:17:48.067
00:24:56.326 : en:00:24:56.326
00:32:35.951 : en:00:32:35.951
00:41:44.501 : en:00:41:44.501
00:49:23.001 : en:00:49:23.001
00:58:35.512 : en:00:58:35.512
01:07:10.025 : en:01:07:10.025
01:19:05.157 : en:01:19:05.157
01:24:20.055 : en:01:24:20.055
01:33:48.622 : en:01:33:48.622
01:45:17.310 : en:01:45:17.310
01:50:24.618 : en:01:50:24.618
01:57:57.069 : en:01:57:57.069
02:05:25.518 : en:02:05:25.518
Скріншоти









Запис з ТБ: slim

Джерело:


 Трекер:    Зареєстрований   

Завантажити / скачати фільм українською



відео для новачків



 Зареєстрований:   2020-06-23 21:55
 Розмір:   14.8 GB 
 Оцінка фільму:   10/10 (Голосів: 2)
   
Інші релізи
   День патріота / Patriots Day (2016) Remux 1080p Ukr/Eng | Sub Eng kryk-v.ya.  0 / 0   24.65 GB   2020-05-09 17:30 
   День патріота / Patriots Day (2016) igor911  6 / 0   1.46 GB   2019-06-01 09:28 
   День патріота / Patriots Day (2016) 720p Ukr/Eng | Sub Eng/Fre/Por/Spa igor911  5 / 0   8.22 GB   2019-05-31 23:44 
   День патріота / Patriots Day (2016) AVC Ukr/Eng | Sub Eng Electroz  9 / 0   2.98 GB   2019-05-31 00:15 
Ваш часовий пояс: GMT + 2 Години

Нова тема   Відповісти