Європа з висоти пташиного польоту / Europe From Above (Сезон 1) (2019) HDTV 1080i Ukr/Eng

Нові коментарі

Нова тема   Відповісти
Автор Повідомлення
sergiyko.5 
VIP


З нами з: 25.02.16
Востаннє: 04.07.20
Повідомлень: 3225

2020-06-23 16:00  
Європа з висоти пташиного польоту / Europe From Above (Сезон 1) (2019) HDTV 1080i Ukr/Eng


Європа з висоти пташиного польоту / Europe From Above (Сезон 1) (2019) HDTV 1080i Ukr/Eng

Жанр: документальний
Країна: Велика Британія
Кінокомпанія: Windfall Films
Режиссер: Діді Мей Хенд

Сюжет:
Серіал піднімає в повітря над Німеччиною, Італією, Нідерландами, Польщею, Іспанією і Великобританією, щоб продемонструвати кращі культурні та географічні пам'ятки Європи, якими ви їх ще не бачили. Карколомна аерофотозйомка дозволяє нам візуалізувати зміну сезону за лічені секунди, так як поля тюльпанів в Нідерландах чарівним чином розриваються, а водоспади в Доломітових Альпах перетворюються в лід. Ми розкриваємо, як традиції, інженерія та чудеса природи сформували цей епічний континент - яскравий портрет цих регіонів і людей, які підтримують свої традиції.




Тривалість: 00:44:00 серія
Якість: HDTV

Відео: кодек: розмір кадру: 1920 х 1080 бітрейт: 5800 кб/с
Аудіо # 1: мова: українська переклад: багатоголосий закадровий кодек: 2.0 бітрейт: 192 кб/с
Озвучення: National Geographic
Аудіо # 2: мова: англійська переклад: оригінал кодек: 2.0 бітрейт: 192 кб/с
Перелік серій:
01. Нідерланди / The Netherlands
Це захоплююче повітряна подорож над Голландією дозволить вам побачити під собою старовинні вітряні млини, футуристичні "зёление будинку" і найграндіозніший в світі багаття.
02. Італія / Italy
Захоплююче повітряна подорож над Італією дозволить вам побачити морські драги, що працюють в Венеції, рибалок в Сицилії, що ловлять рибу з "турецької сходи", і школу для зимової їзди на суперкарі.
03. Німеччина / Germany
У цьому фільмі ви зробите дивовижну повітряну подорож над Німеччиною, в ході якого побачите завод, який займає площу цілого міста, середньовічні замки, немов з'явилися з казки, і найбільше в Європі наземний транспортний засіб
04. Великобританія / United Kingdom
В ході цієї дивної повітряної подорожі ви побачите Великобританію, такою ви ще ніколи її не бачили. Кінокамери, ширяють у повітрі над "Дорогою Гігантів", покажуть вам робітників, які очищають узбережжя, роз'їжджаючи на водних лижах, відчайдушних садівників, які працюють звисаючи під дахом "Райського саду". Ми також пролетимо над Лондоном і побачимо, як чистять від зимового бруду один з найвищих його хмарочосів.
05. Іспанія / Spain
Встановлені на літальних апаратах кінокамери зняли процес будівництва храму Святого Сімейства в Барселоні, який архітектори прагнуть якомога швидше закінчити, відчайдушних мисливців на черепашок, що спускаються вниз по порізаним скелях, щоб зловити одного з найрідкісніших молюсків в світі. Ми побачимо також одне з найбільших занедбаних будівель в світі, побудована глибоко в горах на півночі Іспанії.
06. Польща / Poland
Під час цього захоплюючого повітряної подорожі над Польщею ви побачите її такою, якою ніколи не бачили раніше. Ширяють у повітрі камери облетять найбільший в світі замок, покажуть феєрверки над Краковом, а також сутички бізонів - найбільших тварин в Європі. Над Варшавою ви побачите будівельників, старанно зводять найвищу будівлю в Євросоюзі. Ці види Польщі з висоти пташиного польоту показують, які дивні трансформації переживає ця країна.
Про файл:
General
Unique ID : 335984964523453766369003038471459010750 (0xFCC459B412EDC22FBDC9B1E28ADD78BE)
Complete name : D:\Documents\Torrents\Rizne\Europe From Above S01 1080i HDTV\Europe.From.Above.S01E05.Spain.1080i.HDTV.
Format :
Format version : Version 4
File size : 1.91 GiB
Duration : 43 min 58 s
Overall bit rate : 6 207 kb/s
Movie name : Europe From Above S01 1080i HDTV by sergiyko
Encoded date : UTC 2020-06-23 13:01:51
Writing application : v47.0.0 ('Black Flag') 64-bit
Writing library : libebml v1.3.10 + v1.5.2

Video
ID : 1
Format : AVC
Format/Info : Advanced Video Codec
Format profile : [email protected]
Format settings : CABAC / 4 Ref Frames
Format settings, CABAC : Yes
Format settings, Reference : 4 frames
Codec ID : V_MPEG4/ISO/AVC
Duration : 43 min 58 s
Bit rate : 5 819 kb/s
Width : 1 920 pixels
Height : 1 080 pixels
Display aspect ratio : 16:9
Frame rate mode : Variable
Frame rate : 50.000 FPS
Original frame rate : 25.000 FPS
Standard : Component
Color space : YUV
Chroma subsampling : 4:2:0
Bit depth : 8 bits
Scan type : Interlaced
Scan type, store method : Separated fields
Scan order : Top Field First
Bits/(Pixel*Frame) : 0.056
Stream size : 1.79 GiB (94%)
Title : S01E05.Spain
Language : English
Default : Yes
Forced : No
Color range : Limited
Color primaries : BT.709
Transfer characteristics : BT.709
Matrix coefficients : BT.709

Audio #1
ID : 2
Format : AC-3
Format/Info : Audio Coding 3
Commercial name : Dolby Digital
Codec ID : A_AC3
Duration : 43 min 58 s
Bit rate mode : Constant
Bit rate : 192 kb/s
Channel(s) : 2 channels
Channel layout : L R
Sampling rate : 48.0 kHz
Frame rate : 31.250 FPS (1536 SPF)
Compression mode : Lossy
Stream size : 60.4 MiB (3%)
Title : MVO
Language : Ukrainian
Service kind : Complete Main
Default : Yes
Forced : Yes

Audio #2
ID : 3
Format : AC-3
Format/Info : Audio Coding 3
Commercial name : Dolby Digital
Codec ID : A_AC3
Duration : 43 min 58 s
Bit rate mode : Constant
Bit rate : 192 kb/s
Channel(s) : 2 channels
Channel layout : L R
Sampling rate : 48.0 kHz
Frame rate : 31.250 FPS (1536 SPF)
Compression mode : Lossy
Stream size : 60.4 MiB (3%)
Title : Original
Language : English
Service kind : Complete Main
Default : No
Forced : No
Скріншоти:


Запис/зведення: sergiyko


Бронзовий реліз (на рейтинг впливає 75% завантаженого)
 Трекер:    Зареєстрований   

Завантажити / скачати фільм українською



відео для новачків



 Зареєстрований:   2020-07-01 10:26
 Розмір:   12.51 GB 
 Оцінка фільму:   10/10 (Голосів: 7)
   
11FrYkT 
Модератор відео


З нами з: 20.02.11
Востаннє: 03.07.20
Повідомлень: 6941

2020-06-26 12:15  
sergiyko.5 , додайте джерело звуку
sergiyko.5 
VIP


З нами з: 25.02.16
Востаннє: 04.07.20
Повідомлень: 3225

2020-07-01 10:27  
Додав 1,2,6 епізоди, сезон повний. Приємного перегляду!
Ваш часовий пояс: GMT + 2 Години

Нова тема   Відповісти