Хрещений батько Гарлема (Сезон 1, Серії 1-5) / Godfather of Harlem (Season 1, Episodes 1-5) (2019) 1080p

Нові коментарі

Нова тема   Відповісти
Автор Повідомлення
Anonymous 







2020-06-23 13:07  
Хрещений батько Гарлема (Сезон 1, Серії 1-5) / Godfather of Harlem (Season 1, Episodes 1-5) (2019) 1080p

Хрещений батько Гарлема (Сезон 1, Серії 1-5) / Godfather of Harlem (Season 1, Episodes 1-5) (2019) 1080p


Жанр: драма, кримінальний
Країна: США


Кінокомпанія / телеканал: Epix
Режисер: Джон Рідлі
Актори/ролі озвучують: Форест Уітакер, Люсі Фрай, Найджел Тетч

Сюжет:
Кримінальний бос Бампі Джонсон (Форест Уїтакер) повертається на початку 1960-х років в рідній Гарлем після десяти років, проведених за гратами. ... Для того щоб повернути собі вплив, Бампі кидає виклик сім'ї з Генуї, яка прибрала до рук Гарлем і частина Нью-Йорка


Тривалість: 1 серія: ~ 55 хв.
Перелік серій
1. By Whatever Means Necessary
2. The Nitty Gritty
3. Our Day Will Come
4. I Am the Greatest
5. It's All in the Game
6. Il Canto de Malavita
7. Masters of War
8. How I Got Over
9. Rent Strike Blues
10. Chickens Come Home to Roost
Якість: 1080p
Відео:
кодек:
розмір кадру: 1920 х 1080
бітрейт: ~ 8 345 кб/с

Аудіо # 1:
мова: українська
переклад: двоголосий закадровий
кодек: 2.0
бітрейт: 128 кб/c
Info

General
Complete name : *********
Format : MPEG-4
Format profile : Base Media / Version 2
Codec ID : mp42 (mp42/isom)
File size : 3.21 GiB
Duration : 54mn 17s
Overall bit rate mode : Variable
Overall bit rate : 8 464 Kbps
Encoded date : UTC 2020-06-23 08:42:15
Tagged date : UTC 2020-06-23 08:42:15

Video
ID : 2
Format : AVC
Format/Info : Advanced Video Codec
Format profile : [email protected]
Format settings : CABAC / 2 Ref Frames
Format settings, CABAC : Yes
Format settings, ReFrames : 2 frames
Format settings, GOP : M=2, N=15
Codec ID : avc1
Codec ID/Info : Advanced Video Coding
Duration : 54mn 17s
Bit rate mode : Variable
Bit rate : 8 331 Kbps
Maximum bit rate : 10 000 Kbps
Width : 1 920 pixels
Height : 1 080 pixels
Display aspect ratio : 16:9
Frame rate mode : Constant
Frame rate : 29.970 (30000/1001) fps
Color space : YUV
Chroma subsampling : 4:2:0
Bit depth : 8 bits
Scan type : Progressive
Bits/(Pixel*Frame) : 0.134
Stream size : 3.16 GiB (98%)
Language : English
Encoded date : UTC 2020-06-23 08:42:15
Tagged date : UTC 2020-06-23 08:42:15
Codec configuration box : avcC

Audio
ID : 1
Format : LC
Format/Info : Advanced Audio Codec Low Complexity
Codec ID : mp4a-40-2
Duration : 54mn 17s
Bit rate mode : Constant
Bit rate : 128 Kbps
Channel(s) : 2 channels
Channel layout : L R
Sampling rate : 48.0 KHz
Frame rate : 46.875 fps (1024 SPF)
Compression mode : Lossy
Stream size : 49.7 MiB (2%)
Language : English
Encoded date : UTC 2020-06-23 08:42:15
Tagged date : UTC 2020-06-23 08:42:15
Скріншоти



Джерело звуку: любительський переклад


Авторський реліз (завантажувати можна без реєстрації)
 Трекер:    Зареєстрований   

Завантажити / скачати серіал українською



відео для новачків



 Зареєстрований:   2020-07-08 11:15
 Розмір:   15.52 GB 
 Оцінка серіалу:   9.6/10 (Голосів: 5)
   
HorosheKino 
Частий відвідувач


З нами з: 17.10.19
Востаннє: 09.07.20
Повідомлень: 37

2020-06-23 14:56  
Не чув про цей серіал! А буде фулХД?)
don pedro 
Попереджень: 1
Попереджень: 1 


З нами з: 29.06.11
Востаннє: 09.07.20
Повідомлень: 17174

2020-06-23 17:01  
Бампі Джонсон, до речі, є також одним з дійових осіб фільмі "Американський ґанґстер" з Дензелем Вашінгтоном у головній ролі.
11FrYkT 
Модератор відео


З нами з: 20.02.11
Востаннє: 09.07.20
Повідомлень: 6942

2020-06-24 11:45  
Anonymous . додати звіт медіаінфо, скріншоти не відповідають вказаному розміру кадра
Anonymous 







2020-06-29 11:21  
Додав 2 серію
Anonymous 







2020-07-08 11:17  
Додав 3,4,5 серію
havryk 
VIP


З нами з: 29.06.10
Востаннє: 09.07.20
Повідомлень: 841

2020-07-08 19:13  
Anonymous написано:
AVC

Anonymous написано:
розмір кадру: 1920 х 1080

Тут не авц, а 1080p, тож перенесіть у розділ HD

leicheman 
Відео Гуртом - фільмокрай
Відео Гуртом - фільмокрай


З нами з: 03.07.14
Востаннє: 09.07.20
Повідомлень: 5120

2020-07-08 19:20  
havryk написано:
1080p

бо схоже по інфо про файл відеоряд кодувався разом зі звуком, але в HD таки треба перенести)

bot 
робот


З нами з: 30.09.07
Востаннє: 26.05.05
Повідомлень: 25018

2020-07-08 20:08  
Тему перенесено з Телесеріали до форуму Серіали в HD


Dark Invader

Ваш часовий пояс: GMT + 2 Години

Нова тема   Відповісти