Наша планета (Сезон 1) / Our Planet (Season 1) (2019) 1080p HDR H.265 Ukr/Eng | Sub Ukr/Eng

Нові коментарі

Нова тема   Відповісти
Автор Повідомлення
MasterYura 
Відео Гуртом - фільмокрай
Відео Гуртом - фільмокрай


З нами з: 21.11.09
Востаннє: 11.07.20
Повідомлень: 1090

2020-06-23 10:28  
Наша планета (Сезон 1)
Our Planet (Season 1) (2019) 1080p HDR H.265 Ukr/Eng | Sub Ukr/Eng


Наша планета (Сезон 1) / Our Planet (Season 1) (2019) 1080p HDR H.265 Ukr/Eng | Sub Ukr/Eng


Жанр: документальний
Країна: США, Велика Британія



Телеканал / кіностудія: Netflix, Silverback Films
Ведучий: Девід Аттенборо

Сюжет:
Серіал від творців «Планета Земля» відправляє глядачів в безпрецедентну подорож по найціннішим природним місцям проживання в світі. Випробуйте природну красу нашої планети і вивчіть, як зміна клімату впливає на всі живі істоти в цьому амбітному документальному фільмі вражаючого масштабу.


Оригінальний трейлер


Тривалість: 1 серія: ~50 хвилин (цілком серій: 8 із 8)
Перелік серій
01. Одна планета / One Planet
02. Замерзлі світи / Frozen Worlds
03. Джунглі / Jungles
04. Прибережні моря / Coastal Seas
05. Від пустель до лугів / From Deserts to Grasslands
06. Відкриті моря / The High Seas
07. Свіжа вода / Fresh Water
08. Ліси / Forests
Якість: 1080p
Відео:
кодек: H.265 (HEVC)
розмір кадру: 1920x1080
бітрейт: ~5500 кб/с
бітова глибина: 10 біт
кольоровий простір: BT.2020 (HDR)

Увага! Перед завантаженням переконайтесь, що ваш пристрій відтворення (та/або ПЗ) підтримує H.265 (HEVC)

Аудіо # 1:
мова: українська
переклад: Професійний одноголосий закадровий
кодек: 5.1
бітрейт: 448 кб/с

Аудіо # 2:
мова: англійська
переклад: оригінал
кодек: E- JOC 5.1
бітрейт: 768 кб/с

Субтитри # 1:
мова: українська
тип: програмні (м'які)
формат: *.srt
переклад: аматорський, Error

Субтитри # 2:
мова: англійська (SDH)
тип: програмні (м'які)
формат: *.srt
Info

General
Unique ID : 78352428018417122184123743641875783541 (0x3AF220F4AF9B48929C41FD3AC2581F75)
Complete name : ...Our Planet S01 (2019) 1080p [UKR_ENG] [Hurtom] by MasterYura\Our Planet E01 (2019) 1080p [UKR_ENG] [Hurtom].
Format :
Format version : Version 4
File size : 2.28 GiB
Duration : 49 min 49 s
Overall bit rate : 6 553 kb/s
Encoded date : UTC 2020-06-23 06:43:35
Writing application : v37.0.0 ('Leave It') 64-bit
Writing library : libebml v1.3.9 + v1.5.2
Cover : Yes
Attachments : cover.jpg

Video
ID : 1
Format : HEVC
Format/Info : High Efficiency Video Coding
Commercial name : HDR10
Format profile : Main [email protected]@Main
Codec ID : V_MPEGH/ISO/HEVC
Duration : 49 min 27 s
Bit rate : 5 374 kb/s
Width : 1 920 pixels
Height : 1 080 pixels
Display aspect ratio : 16:9
Frame rate mode : Constant
Frame rate : 23.976 (24000/1001) FPS
Color space : YUV
Chroma subsampling : 4:2:0 (Type 2)
Bit depth : 10 bits
Bits/(Pixel*Frame) : 0.108
Stream size : 1.86 GiB (81%)
Title : HEVC, HDR 1080p
Language : English
Default : Yes
Forced : No
Color range : Limited
Color primaries : BT.2020
Transfer characteristics : PQ
Matrix coefficients : BT.2020 non-constant
Mastering display color primar : Display P3
Mastering display luminance : min: 0.0001 cd/m2, max: 1000 cd/m2
Maximum Content Light Level : 1506 cd/m2
Maximum Frame-Average Light Le : 210 cd/m2

Audio #1
ID : 2
Format : AC-3
Format/Info : Audio Coding 3
Commercial name : Dolby Digital
Codec ID : A_AC3
Duration : 49 min 49 s
Bit rate mode : Constant
Bit rate : 448 kb/s
Channel(s) : 6 channels
Channel layout : L R C LFE Ls Rs
Sampling rate : 48.0 kHz
Frame rate : 31.250 FPS (1536 SPF)
Bit depth : 16 bits
Compression mode : Lossy
Stream size : 160 MiB (7%)
Title : VO
Language : Ukrainian
Service kind : Complete Main
Default : Yes
Forced : Yes

Audio #2
ID : 4
Format : E-AC-3 JOC
Format/Info : Enhanced AC-3 with Joint Object Coding
Commercial name : Dolby Digital Plus with Dolby Atmos
Codec ID : A_EAC3
Duration : 49 min 49 s
Bit rate mode : Constant
Bit rate : 768 kb/s
Channel(s) : 6 channels
Channel layout : L R C LFE Ls Rs
Sampling rate : 48.0 kHz
Frame rate : 31.250 FPS (1536 SPF)
Compression mode : Lossy
Stream size : 274 MiB (12%)
Title : E- + Atmos 5.1 @ 768 kbps - Original
Language : English
Service kind : Complete Main
Default : No
Forced : No
Complexity index : 16
Number of dynamic objects : 15
Bed channel count : 1 channel
Bed channel configuration : LFE

Text #1
ID : 3
Format : UTF-8
Codec ID : S_TEXT/UTF8
Codec ID/Info : UTF-8 Plain Text
Duration : 49 min 11 s
Bit rate : 60 b/s
Count of elements : 315
Stream size : 21.8 KiB (0%)
Title : Full
Language : Ukrainian
Default : No
Forced : No

Text #2
ID : 5
Format : UTF-8
Codec ID : S_TEXT/UTF8
Codec ID/Info : UTF-8 Plain Text
Duration : 49 min 11 s
Bit rate : 42 b/s
Count of elements : 434
Stream size : 15.2 KiB (0%)
Title : Full SDH
Language : English
Default : No
Forced : No
Скріншоти









Велика подяка Anonymous за озвучення!! та роздачу з меншим розміром AVC звідки взято звук та опис
Українізація постера: DanyZemlyanoy
Джерело: &
Особиста оцінка: 9 - давно не бачив настільки якісне кіно



Аналогічні серіали від творців даного серіалу:
Планета Земля: 1 сезон | 2 сезон
Блакитна планета: 1 сезон | 2 сезон


Авторський реліз (завантажувати можна без реєстрації)
 Трекер:    Зареєстрований   

Завантажити / скачати фільм українською



відео для новачків



 Зареєстрований:   2020-06-23 10:28
 Розмір:   18.73 GB 
 Оцінка фільму:   10/10 (Голосів: 4)
   
MasterYura 
Відео Гуртом - фільмокрай
Відео Гуртом - фільмокрай


З нами з: 21.11.09
Востаннє: 11.07.20
Повідомлень: 1090

2020-06-23 10:47  
дані: Відео:кодек: HEVC, HDR - не в курсі як правильно має бути, можете виправити ( медіа інфо додав)
bot 
робот


З нами з: 30.09.07
Востаннє: 26.05.05
Повідомлень: 25031

2020-06-23 10:49  
MasterYura 
Відео Гуртом - фільмокрай
Відео Гуртом - фільмокрай


З нами з: 21.11.09
Востаннє: 11.07.20
Повідомлень: 1090

2020-06-23 12:39  
Хто в курсі як зробити щоб під списком файлів роздачі: підтягнувся спойлер: інші зі списком інших роздач (інших розмірів). А саме роздачу AVC
Чи це лише для фільмів?

igor911 
Модератор відео


З нами з: 18.01.08
Востаннє: 11.07.20
Повідомлень: 14872

2020-06-23 15:16  
MasterYura, виправив на HDR H.265 (netflix не транслює 1080р в H.265), додав рейтинг імдб та лінк на пошук усіх релізів. Скрипт, що виводить спойлер "Інші релізи" не працює в серіалах.
MasterYura 
Відео Гуртом - фільмокрай
Відео Гуртом - фільмокрай


З нами з: 21.11.09
Востаннє: 11.07.20
Повідомлень: 1090

2020-06-23 18:05  
Дякую за правки !)
vash1 
VIP


З нами з: 16.03.16
Востаннє: 08.07.20
Повідомлень: 261

2020-06-27 22:28  
На жаль не зможу скачати цей чудовий реліз Sad (1)

Бо HDR не працюватиме на Mac та Linux. А зв'язка МPC-HC + madVR лише для Windows.

На жаль, VLC ще не навчився не "вимивати" кольори

А з апаратною підтримкою HDR - туго

Тому користувачі Mac та Linux матимуть приблизно таке ж зображення як на скрінах:


Python_3.2 
Свій


З нами з: 28.12.12
Востаннє: 11.07.20
Повідомлень: 111

2020-06-30 01:36  
vash1
Для Linux використовуйте SMPlayer
У мене там все працює
А VLC справді чомусь не вміє Sad (1)

Ваш часовий пояс: GMT + 2 Години

Нова тема   Відповісти