Флірт з сорокарічною / Flirting with Forty (2008) AVC Ukr/Eng | sub Eng

Нові коментарі

Нова тема   Відповісти
Автор Повідомлення
Arsenfpu 
Відео Гуртом - фільмокрай
Відео Гуртом - фільмокрай


З нами з: 30.04.09
Востаннє: 02.07.20
Повідомлень: 7028

2020-06-23 09:37  
Флірт з сорокарічною / Flirting with Forty (2008) AVC Ukr/Eng | sub Eng

Флірт з сорокарічною / Flirting with Forty (2008) AVC Ukr/Eng | sub Eng


Жанр: романтичний, мелодрама, комедія
Країна: США



Кінокомпанія: PeaceOut Productions, Sony Pictures Television
Режисер: Мікаел Саломон
Актори: Хезер Локлір, Роберт Баклі, Ванесса Вільямс, Камерон Бенкрофт, Сем Дьюк, Енн Хоторн, Чела Хорсдел, Стефані фон Пфеттен, Джемі Блох, Тед Віттелл, Крісті Грін, Трейсі Трумен

Сюжет:
Джекі Лоуренс, розлучена мати двох дітей, напередодні свого сорокаріччя, їде у відпустку на Гаваї, де знайомиться з молодим інструктором по серфінгу. Але те, що почалося заради однієї ночі, волею долі переростає в велике почуття. Але як бути, якщо відпустка закінчується і вдома чекають діти, робота, друзі, а розлучатися з коханим так не хочеться. Джекі доведеться зробити вибір між новим закоханням і будинком, та й як бути з тим що її улюблений молодший на тринадцять років.


Тривалість: 01:27:28
Якість:
Відео:
кодек:
розмір кадру: 1 024 х 576
бітрейт: 2 987 кб/с

Аудіо # 1:
мова: українська
переклад: багатоголосий закадровий
кодек: 2.0
бітрейт: 192 кб/с

Аудіо # 2:
мова: англійська
переклад: оригінал
кодек: 2.0
бітрейт: 192 кб/с

Субтитри:
мова: англійська
тип: програмні (м'які)
формат: *.srt
Скріншоти














Про файл
General
Unique ID : 80816399553774821911854613206009483466 (0x3CCCAC21BD35B08BFB27F612268990CA)
Complete name : C:\Flirting with Forty (2008) [Ukr,Eng] AVC [Hurtom].
Format :
Format version : Version 4 / Version 2
File size : 2.06 GiB
Duration : 1 h 27 min
Overall bit rate : 3 374 kb/s
Movie name : Флірт з сорокарічною / Flirting with Forty (2008)
Encoded date : UTC 2020-06-27 20:15:27
Writing application : v21.0.0 ('Tardigrades Will Inherit The Earth') 32-bit
Writing library : libebml v1.3.5 + v1.4.8
Cover : Yes
Attachments : cover.jpg

Video
ID : 1
Format : AVC
Format/Info : Advanced Video Codec
Format profile : [email protected]
Format settings, CABAC : Yes
Format settings, ReFrames : 11 frames
Codec ID : V_MPEG4/ISO/AVC
Duration : 1 h 27 min
Bit rate : 2 987 kb/s
Width : 1 024 pixels
Height : 576 pixels
Display aspect ratio : 16:9
Frame rate mode : Constant
Frame rate : 23.976 (24000/1001) FPS
Color space : YUV
Chroma subsampling : 4:2:0
Bit depth : 8 bits
Scan type : Progressive
Bits/(Pixel*Frame) : 0.211
Stream size : 1.83 GiB (89%)
Writing library : core 157 r2935 545de2f
Encoding settings : cabac=1 / ref=11 / deblock=1:-3:-3 / analyse=0x3:0x133 / me=umh / subme=10 / psy=1 / psy_rd=1.00:0.05 / mixed_ref=1 / me_range=32 / chroma_me=1 / trellis=2 / 8x8dct=1 / cqm=0 / deadzone=21,11 / fast_pskip=0 / chroma_qp_offset=-3 / threads=3 / lookahead_threads=1 / sliced_threads=0 / nr=0 / decimate=1 / interlaced=0 / bluray_compat=0 / constrained_intra=0 / bframes=9 / b_pyramid=2 / b_adapt=2 / b_bias=0 / direct=3 / weightb=1 / open_gop=0 / weightp=2 / keyint=240 / keyint_min=23 / scenecut=40 / intra_refresh=0 / rc_lookahead=40 / rc=2pass / mbtree=1 / bitrate=2987 / ratetol=1.0 / qcomp=0.60 / qpmin=10 / qpmax=51 / qpstep=4 / cplxblur=20.0 / qblur=0.5 / vbv_maxrate=50000 / vbv_bufsize=62500 / nal_hrd=none / filler=0 / ip_ratio=1.40 / aq=1:1.00
Language : English
Default : Yes
Forced : No

Audio #1
ID : 2
Format : AC-3
Format/Info : Audio Coding 3
Mode extension : CM (complete main)
Format settings, Endianness : Big
Codec ID : A_AC3
Duration : 1 h 27 min
Bit rate mode : Constant
Bit rate : 192 kb/s
Channel(s) : 2 channels
Channel positions : Front: L R
Sampling rate : 48.0 kHz
Frame rate : 31.250 FPS (1536 spf)
Compression mode : Lossy
Stream size : 120 MiB (6%)
Title : СТБ
Language : Ukrainian
Default : Yes
Forced : Yes

Audio #2
ID : 3
Format : AC-3
Format/Info : Audio Coding 3
Mode extension : CM (complete main)
Format settings, Endianness : Big
Codec ID : A_AC3
Duration : 1 h 27 min
Bit rate mode : Constant
Bit rate : 192 kb/s
Channel(s) : 2 channels
Channel positions : Front: L R
Sampling rate : 48.0 kHz
Frame rate : 31.250 FPS (1536 spf)
Compression mode : Lossy
Stream size : 120 MiB (6%)
Language : English
Default : No
Forced : No

Text
ID : 4
Format : UTF-8
Codec ID : S_TEXT/UTF8
Codec ID/Info : UTF-8 Plain Text
Duration : 1 h 26 min
Bit rate : 81 b/s
Count of elements : 1660
Stream size : 51.5 KiB (0%)
Language : English
Default : Yes
Forced : No
Джерело:
За запис з ТБ дякую пану Bohdan237
Особиста оцінка: не дивився


 Трекер:    Зареєстрований   

Завантажити / скачати фільм українською



відео для новачків



 Зареєстрований:   2020-06-27 23:47
 Розмір:   2.06 GB 
 Оцінка фільму:   5.5/10 (Голосів: 4)
   
Інші релізи
bot 
робот


З нами з: 30.09.07
Востаннє: 26.05.05
Повідомлень: 24915

2020-06-27 23:47  
Тему перенесено з Анонси релізів до форуму Фільми


Arsenfpu

Ваш часовий пояс: GMT + 2 Години

Нова тема   Відповісти