Місячне світло (Сезон 1) / Moonlight (Season 1) (2007-2008) 1080p Ukr/Eng

Нові коментарі

Нова тема   Відповісти
Автор Повідомлення
urij546724 
Відео Гуртом - фільмокрай
Відео Гуртом - фільмокрай


З нами з: 16.03.10
Востаннє: 05.12.20
Повідомлень: 5749

2020-06-22 18:03  
Місячне світло (Сезон 1) / Moonlight (Season 1) (2007-2008) 1080p Ukr/Eng

Місячне світло (Сезон 1) / Moonlight (Season 1) (2007-2008) 1080p Ukr/Eng


Жанр: фантастика, детектив, драма
Країна: США



Кіностудія / кінокомпанія: Silver Pictures Television
Режисер: Тревор Мансон (Wallace Fox)
Актори: Алекс О'Лахлан (Bela Lugosi), Софія Майлс (Luana Walters), Джейсон Дорінг (Tristram Coffin), Шаннін Соссамон (Elizabeth Russell), Джордан Белфі (Minerva Urecal), Браян Дж Вайт (Angelo Rossitto), Тамі Роман (Joan Barclay)...

Сюжет:
Детектив Мік Сент-Джон — 90-літній вампір, який живе за власним кодексом. Він спить в морозильній камері, а не в труні, не кусає людей заради їжі, а кров добуває в морзі у патологоанатома-вампіра. Мік здобув безсмертя 60 років тому, коли після весілля його вкусила власна наречена Каролін. В наші дні випадок зводить Міка з журналісткою Бет Тернер, якій він врятував життя 22 роки тому...
Перелік серій:
Moonlight. Season 1, Episode 1. No Such Thing as Vampires
Moonlight. Season 1, Episode 2. Out of the Past
Moonlight. Season 1, Episode 3. Dr. Feelgood
Moonlight. Season 1, Episode 4. Fever
Moonlight. Season 1, Episode 5. Arrested Development
Moonlight. Season 1, Episode 6. B.C.
Moonlight. Season 1, Episode 7. The Ringer
Moonlight. Season 1, Episode 8. 12:04 AM
Moonlight. Season 1, Episode 9. Fleur De Lis
Moonlight. Season 1, Episode 10. Sleeping Beauty
Moonlight. Season 1, Episode 11. Love Lasts Forever
Moonlight. Season 1, Episode 12. The Mortal Cure
Moonlight. Season 1, Episode 13. Fated to Pretend
Moonlight. Season 1, Episode 14. Click
Moonlight. Season 1, Episode 15. What's Left Behind
Moonlight. Season 1, Episode 16. Sonata
Тривалість: 1 серія ~ 00:43:00
Якість: 1080p
Відео:
кодек:
розмір кадру: 1920 х 1080
бітрейт: 8000 кб/с
частота кадрів: 23.976 к/с (fps)

Аудіо #1:
мова: українська
переклад: багатоголосий закадровий
кодек: 2.0
бітрейт: 192 кб/с
озвучено: Так Треба Продакшн на замовлення ICTV
примітка: у 10 серії відсутнє озвучення, оскільки її не транслював канал

Аудіо #2:
мова: англійська
переклад: оригінал
кодек: 2.0
бітрейт: 126 кб/с

Субтитри:
мова: українська
тип: програмні (м'які)
формат: *.srt
примітка: субтитри лише у 7 і 10 серіях
Media info:
General
Unique ID : 39951487402875481196458278618286600515 (0x1E0E606847EB1BF9E6D65A5C79513143)
Format :
Format version : Version 4
File size : 2.49 GiB
Duration : 43 min 26 s
Overall bit rate : 8 215 kb/s
Movie name : Moonlight_s01e07_-_The Ringer [ukr_eng, sub ukr] 1080p [Hurtom] by urij546724
Encoded date : UTC 2020-06-05 13:16:18
Writing application : v47.0.0 ('Black Flag') 64-bit
Writing library : libebml v1.3.10 + v1.5.2

Video
ID : 1
Format : AVC
Format/Info : Advanced Video Codec
Format profile : [email protected]
Format settings : CABAC / 3 Ref Frames
Format settings, CABAC : Yes
Format settings, Reference : 3 frames
Codec ID : V_MPEG4/ISO/AVC
Duration : 43 min 26 s
Bit rate mode : Constant
Bit rate : 8 000 kb/s
Width : 1 920 pixels
Height : 1 080 pixels
Display aspect ratio : 16:9
Frame rate mode : Constant
Frame rate : 23.976 (24000/1001) FPS
Color space : YUV
Chroma subsampling : 4:2:0
Bit depth : 8 bits
Scan type : Progressive
Bits/(Pixel*Frame) : 0.161
Stream size : 2.40 GiB (96%)
Title : Moonlight_s01e07_-_The Ringer 1080p [Hurtom] by urij546724
Language : English
Default : Yes
Forced : Yes

Audio #1
ID : 2
Format : AC-3
Format/Info : Audio Coding 3
Commercial name : Dolby Digital
Codec ID : A_AC3
Duration : 43 min 26 s
Bit rate mode : Constant
Bit rate : 192 kb/s
Channel(s) : 2 channels
Channel layout : L R
Sampling rate : 48.0 kHz
Frame rate : 31.250 FPS (1536 SPF)
Compression mode : Lossy
Delay relative to video : -36 ms
Stream size : 59.7 MiB (2%)
Title : Українська доріжка
Language : Ukrainian
Service kind : Complete Main
Default : Yes
Forced : Yes

Audio #2
ID : 3
Format : LC
Format/Info : Advanced Audio Codec Low Complexity
Codec ID : A_AAC-2
Duration : 43 min 26 s
Bit rate : 126 kb/s
Channel(s) : 2 channels
Channel layout : L R
Sampling rate : 44.1 kHz
Frame rate : 43.066 FPS (1024 SPF)
Compression mode : Lossy
Delay relative to video : -36 ms
Stream size : 39.0 MiB (2%)
Title : Оригінальна доріжка
Language : English
Default : No
Forced : No

Text
ID : 4
Format : UTF-8
Codec ID : S_TEXT/UTF8
Codec ID/Info : UTF-8 Plain Text
Duration : 41 min 52 s
Bit rate : 110 b/s
Count of elements : 631
Stream size : 34.0 KiB (0%)
Title : Українські субтитри
Language : Ukrainian
Default : No
Forced : No
Скріншоти:






Трейлер:
Семпл:
Джерело 1_________Джерело 2_________Джерело 3_________Джерело 4_________Джерело 5
У випадку, якщо з усіх джерел семпл видалять, прохання повідомити мені у ПРИВАТ


Подяка:

1. Пану Hulk1987 за запис звуку з ТБ.
2. Пану Тирік за українізацію постера.


Реліз створено:


Срібний реліз (на рейтинг впливає 50% завантаженого)
 Трекер:    Зареєстрований   

Завантажити / скачати серіал українською



відео для новачків



 Зареєстрований:   2020-06-22 18:03
 Розмір:   39.71 GB 
 Оцінка серіалу:   10/10 (Голосів: 2)
 Прохання залишати коментарі і не тікати з роздачі.
   
Ваш часовий пояс: GMT + 2 Години

Нова тема   Відповісти