Труп зникає / The Corpse Vanishes (1942) 1080p Ukr/Eng

Нові коментарі

Нова тема   Відповісти
Автор Повідомлення
urij546724 
Відео Гуртом - фільмокрай
Відео Гуртом - фільмокрай


З нами з: 16.03.10
Востаннє: 29.09.20
Повідомлень: 5701

2020-06-22 15:50  
Труп зникає / The Corpse Vanishes (1942) 1080p Ukr/Eng



Жанр: жахи, фантастика
Країна: США



Кіностудія / кінокомпанія: Sam Katzman Productions
Режисер: Воллес Фокс (Wallace Fox)
Актори: Бела Лугосі (Bela Lugosi), Луана Волтерс (Luana Walters), Трістрам Коффін (Tristram Coffin), Елізабет Рассел (Elizabeth Russell), Мінерва Урекал (Minerva Urecal), Анджело Россітто (Angelo Rossitto), Джоан Барклай (Joan Barclay)...

Сюжет:
Божевільний вчений доктор Лоренс намагається зберегти свою стару дружину молодою. Для цього він викрадає наречених, витягує з них рідину і впорскує її в свою дружину. Одна з журналісток помітивши те, що у всіх викрадених дівчат були приколені незвичайні орхідеї, відправляється в резиденцію доктора Лоренса, який відомий тим, що вирощує подібні орхідеї...


Тривалість: 01:02:59
Якість: 1080p
Відео:
кодек:
розмір кадру: 1568 х 1080
бітрейт: 11.5 Мб/с
частота кадрів: 23.976 к/с (fps)

Аудіо #1:
мова: українська
переклад: двоголосий закадровий
кодек: 2.0
бітрейт: 192 кб/с
запис звуку з каналу: Ентер-фільм
озвучено: Інтер

Аудіо #2:
мова: англійська
переклад: оригінал
кодек: 2.0
бітрейт: 192 кб/с
Media info:
General
Unique ID : 110270269848550939244109997097049431915 (0x52F5480E4460063096B4BEA3AE249F6B)
Complete name : E:\18\24\The Corpse Vanishes (1942) [Ukr.Inter_Eng] 1080p [Hurtom] by urij546724.
Format :
Format version : Version 4
File size : 5.23 GiB
Duration : 1 h 2 min
Overall bit rate : 11.9 Mb/s
Movie name : The Corpse Vanishes (1942) [Ukr.Inter_Eng] 1080p [Hurtom] by urij546724
Encoded date : UTC 2020-06-22 11:14:18
Writing application : v47.0.0 ('Black Flag') 64-bit
Writing library : libebml v1.3.10 + v1.5.2
Attachments : The Corpse Vanishes (1942) [Ukr.Inter_Eng] 1080p [Hurtom] by urij546724.jpg

Video
ID : 1
Format : AVC
Format/Info : Advanced Video Codec
Format profile : [email protected]
Format settings : CABAC / 4 Ref Frames
Format settings, CABAC : Yes
Format settings, Reference : 4 frames
Codec ID : V_MPEG4/ISO/AVC
Duration : 1 h 2 min
Bit rate : 11.5 Mb/s
Width : 1 568 pixels
Height : 1 080 pixels
Display aspect ratio : 3:2
Frame rate mode : Constant
Frame rate : 23.976 (24000/1001) FPS
Color space : YUV
Chroma subsampling : 4:2:0
Bit depth : 8 bits
Scan type : Progressive
Bits/(Pixel*Frame) : 0.283
Stream size : 5.06 GiB (97%)
Title : The Corpse Vanishes (1942) 1080p [Hurtom] by urij546724
Writing library : core 148 r2795M aaa9aa8
Encoding settings : cabac=1 / ref=4 / deblock=1:-2:-2 / analyse=0x3:0x113 / me=umh / subme=9 / psy=1 / psy_rd=1.00:0.15 / mixed_ref=1 / me_range=16 / chroma_me=1 / trellis=2 / 8x8dct=1 / cqm=0 / deadzone=21,11 / fast_pskip=1 / chroma_qp_offset=-3 / threads=24 / lookahead_threads=3 / sliced_threads=0 / nr=0 / decimate=1 / interlaced=0 / bluray_compat=0 / constrained_intra=0 / bframes=3 / b_pyramid=2 / b_adapt=1 / b_bias=0 / direct=3 / weightb=1 / open_gop=0 / weightp=2 / keyint=250 / keyint_min=25 / scenecut=40 / intra_refresh=0 / rc_lookahead=50 / rc=2pass / mbtree=1 / bitrate=11500 / ratetol=1.0 / qcomp=0.60 / qpmin=0 / qpmax=69 / qpstep=4 / cplxblur=20.0 / qblur=0.5 / vbv_maxrate=31250 / vbv_bufsize=31250 / nal_hrd=none / filler=0 / ip_ratio=1.40 / aq=1:1.00
Language : English
Default : Yes
Forced : No

Audio #1
ID : 2
Format : AC-3
Format/Info : Audio Coding 3
Commercial name : Dolby Digital
Codec ID : A_AC3
Duration : 1 h 2 min
Bit rate mode : Constant
Bit rate : 192 kb/s
Channel(s) : 2 channels
Channel layout : L R
Sampling rate : 48.0 kHz
Frame rate : 31.250 FPS (1536 SPF)
Compression mode : Lossy
Stream size : 86.5 MiB (2%)
Title : Українська доріжка
Language : Ukrainian
Service kind : Complete Main
Default : Yes
Forced : Yes

Audio #2
ID : 3
Format : AC-3
Format/Info : Audio Coding 3
Commercial name : Dolby Digital
Codec ID : A_AC3
Duration : 1 h 2 min
Bit rate mode : Constant
Bit rate : 192 kb/s
Channel(s) : 2 channels
Channel layout : L R
Sampling rate : 48.0 kHz
Frame rate : 31.250 FPS (1536 SPF)
Compression mode : Lossy
Stream size : 86.5 MiB (2%)
Title : Оригінальна доріжка
Language : English
Service kind : Complete Main
Default : No
Forced : No

Menu
00:00:00.000 : en:Chapter 01
00:08:06.528 : en:Chapter 02
00:16:12.263 : en:Chapter 03
00:23:46.967 : en:Chapter 04
00:31:50.200 : en:Chapter 05
00:39:01.381 : en:Chapter 06
00:48:19.105 : en:Chapter 07
00:56:00.649 : en:Chapter 08
Скріншоти:





Трейлер:
Семпл:
Джерело 1_________Джерело 2_________Джерело 3_________Джерело 4_________Джерело 5
У випадку, якщо з усіх джерел семпл видалять, прохання повідомити мені у ПРИВАТ


Подяка:

1. Пану Hulk1987 за запис звуку з ТБ.


Реліз створено:


Срібний реліз (на рейтинг впливає 50% завантаженого)
 Трекер:    Зареєстрований   

Завантажити / скачати фільм українською



відео для новачків



 Зареєстрований:   2020-06-22 15:50
 Розмір:   5.23 GB 
 Оцінка фільму:   10/10 (Голосів: 4)
 Прохання не тікати з роздачі і залишати коментарі.
   
MakRA 
VIP


З нами з: 11.11.18
Востаннє: 01.10.20
Повідомлень: 1120

2020-06-22 16:17  
Прекрасно! Дякую за реліз!
Ваш часовий пояс: GMT + 2 Години

Нова тема   Відповісти