На північ через північний захід / North by Northwest (1959) 1080p H.265 Ukr/Eng | Sub Eng

Нові коментарі

Нова тема   Відповісти
Автор Повідомлення
Anonymous 







2020-06-21 22:51  
На північ через північний захід / North by Northwest (1959) 1080p H.265 Ukr/Eng | Sub Eng

На північ через північний захід / North by Northwest (1959) 1080p H.265 Ukr/Eng | Sub Eng


Жанр: трилер
Країна: США
Кінокомпанія: Metro-Goldwyn-Mayer
Режисер: Альфред Гічкок
Актори: Кері Грант, Єва Мері Сейнт, Джеймс Мейсон, Ліо Керролл, Джессі Ройс Лендіс, Мартін Ландау, Філіп Обер, Джозефін Хачінсон, Адам Уільямс

Сюжет:
У центрі сюжету - вигаданий таємний агент. Людини на ім'я Джордж Каплан не існує, але на його ім'я знято розкішний номер в нью-йоркському готелі «Плаза». Ворожа контррозвідка приймає за шпигуна рекламного агента Роджера O. Торнхілла (Кері Грант), який і стає її мішенню. В шпигунській інтризі виявляється замішана і прекрасна дівчина (Єва Мері Сейнт).
Ідею фільму про рекламного агента, якого помилково прийняли за таємного агента, Альфреду Гічкоку подав Отіс Л. Гернсі. Отіса Л. Гернсі дуже вразила реальна історія, що сталася в роки Другої світової війни: британці вигадали міфічного агента і водили за ніс німців, які витратили чимало сил на пошуки «шпигуна».

Тривалість: 02:16:25
Якість:

Відео:
кодек: H.265 (HEVC)
розмір кадру: 1920 x 1080
бітрейт: 11 195 кб/с
бітова глибина: 10 біт

Увага! Перед завантаженням переконайтесь, що ваш пристрій відтворення (та/або ПЗ) підтримує H.265 (HEVC)

Аудіо # 1:
мова: українська
переклад: багатоголосий закадровий
кодек: -HD MA 5.1
бітрейт: 1807 кб/с

Аудіо # 2:
мова: англійська
переклад: оригінал
кодек: TrueHD 5.1
бітрейт: 1327 кб/с

Субтитри # 1: (Full)
мова: англійська
тип: програмні (м'які)
формат: *.srt


Info
Код:
General
Unique ID                                : 217593243080866125543194609711358353347 (0xA3B2EF2B4ED6B1480C85A025FE971FC3)
Complete name                            : North by Northwest (1959) 1080p H.265 [UKR_ENG] [Hurtom].
Format                                   :
Format version                           : Version 4
File size                                : 13.7 GiB
Duration                                 : 2 h 16 min
Overall bit rate mode                    : Variable
Overall bit rate                         : 14.4 Mb/s
Movie name                               : На північ через північний захід / North by Northwest (1959)
Encoded date                             : UTC 2020-06-21 18:55:35
Writing application                      : v20.0.0 ('I Am The Sun') 64-bit
Writing library                          : libebml v1.3.5 + v1.4.8
Cover                                    : Yes
Attachments                              : Cover.jpg

Video
ID                                       : 1
Format                                   : HEVC
Format/Info                              : High Efficiency Video Coding
Format profile                           : Main [email protected]@High
Codec ID                                 : V_MPEGH/ISO/HEVC
Duration                                 : 2 h 16 min
Bit rate                                 : 11.2 Mb/s
Width                                    : 1 920 pixels
Height                                   : 1 080 pixels
Display aspect ratio                     : 16:9
Frame rate mode                          : Constant
Frame rate                               : 23.976 (24000/1001) FPS
Color space                              : YUV
Chroma subsampling                       : 4:2:0
Bit depth                                : 10 bits
Bits/(Pixel*Frame)                       : 0.225
Stream size                              : 10.7 GiB (78%)
Title                                    : На північ через північний захід / North by Northwest (1959)
Writing library                          : x265 3.1+7-147fb92c5ed5:[Windows][clang 8.0.0][64 bit] 10bit
Encoding settings                        : cpuid=1111039 / frame-threads=13 / wpp / no-pmode / no-pme / no-psnr / no-ssim / log-level=3 / input-csp=1 / input-res=1920x1080 / interlace=0 / total-frames=0 / level-idc=41 / high-tier=1 / uhd-bd=0 / ref=5 / allow-non-conformance / no-repeat-headers / annexb / no-aud / no-hrd / info / hash=0 / no-temporal-layers / open-gop / min-keyint=23 / keyint=240 / gop-lookahead=0 / bframes=16 / b-adapt=2 / b-pyramid / bframe-bias=0 / rc-lookahead=60 / lookahead-slices=4 / scenecut=60 / radl=0 / no-splice / no-intra-refresh / ctu=64 / min-cu-size=8 / rect / amp / max-tu-size=32 / tu-inter-depth=4 / tu-intra-depth=4 / limit-tu=4 / rdoq-level=2 / dynamic-rd=0.00 / no-ssim-rd / signhide / no-tskip / nr-intra=0 / nr-inter=0 / no-constrained-intra / no-strong-intra-smoothing / max-merge=5 / limit-refs=1 / limit-modes / me=3 / subme=7 / merange=57 / temporal-mvp / no-hme / weightp / weightb / no-analyze-src-pics / deblock=-3:-3 / no-sao / no-sao-non-deblock / rd=6 / no-early-skip / no-rskip / no-fast-intra / no-tskip-fast / no-cu-lossless / b-intra / no-splitrd-skip / rdpenalty=0 / psy-rd=2.00 / psy-rdoq=1.00 / no-rd-refine / no-lossless / cbqpoffs=0 / crqpoffs=0 / rc=crf / crf=20.0 / qcomp=0.70 / qpstep=4 / stats-write=0 / stats-read=0 / vbv-maxrate=50000 / vbv-bufsize=50000 / vbv-init=0.9 / crf-max=30.0 / crf-min=0.0 / ipratio=1.40 / pbratio=1.30 / aq-mode=2 / aq-strength=1.00 / no-cutree / zone-count=0 / no-strict-cbr / qg-size=32 / no-rc-grain / qpmax=69 / qpmin=0 / no-const-vbv / sar=1 / overscan=0 / videoformat=5 / range=0 / colorprim=1 / transfer=1 / colormatrix=1 / chromaloc=0 / display-window=0cll=0,0 / min-luma=0 / max-luma=1023 / log2-max-poc-lsb=8 / vui-timing-info / vui-hrd-info / slices=1 / no-opt-qp-pps / no-opt-ref-list-length-pps / no-multi-pass-opt-rps / scenecut-bias=0.05 / no-opt-cu-delta-qp / no-aq-motion / no-hdr / no-hdr-opt / no-dhdr10-opt / no-idr-recovery-sei / analysis-reuse-level=5 / scale-factor=0 / refine-intra=0 / refine-inter=0 / refine-mv=0 / refine-ctu-distortion=0 / no-limit-sao / ctu-info=0 / no-lowpass-dct / refine-analysis-type=4980820 / copy-pic=1 / max-ausize-factor=1.0 / no-dynamic-refine / no-single-sei / no-hevc-aq / no-svt / no-field / qp-adaptation-range=1.00
Default                                  : Yes
Forced                                   : No
Color range                              : Limited
Color primaries                          : BT.709
Transfer characteristics                 : BT.709
Matrix coefficients                      : BT.709

Audio #1
ID                                       : 2
Format                                   : XLL
Format/Info                              : Digital Theater Systems
Commercial name                          : -HD Master Audio
Codec ID                                 : A_DTS
Duration                                 : 2 h 16 min
Bit rate mode                            : Variable
Bit rate                                 : 1 806 kb/s
Channel(s)                               : 6 channels
Channel layout                           : C L R Ls Rs LFE
Sampling rate                            : 48.0 kHz
Frame rate                               : 93.750 FPS (512 SPF)
Bit depth                                : 16 bits
Compression mode                         : Lossless
Stream size                              : 1.72 GiB (13%)
Title                                    : -HD MA / 5.1 Ch / 1806 kbps / БЗ / Цікава Ідея
Language                                 : Ukrainian
Default                                  : Yes
Forced                                   : Yes

Audio #2
ID                                       : 3
Format                                   : MLP FBA
Format/Info                              : Meridian Lossless Packing FBA
Commercial name                          : Dolby TrueHD
Codec ID                                 : A_TRUEHD
Duration                                 : 2 h 16 min
Bit rate mode                            : Variable
Bit rate                                 : 1 326 kb/s
Maximum bit rate                         : 2 448 kb/s
Channel(s)                               : 6 channels
Channel layout                           : L R C LFE Ls Rs
Sampling rate                            : 48.0 kHz
Frame rate                               : 1 200.000 FPS (40 SPF)
Compression mode                         : Lossless
Stream size                              : 1.26 GiB (9%)
Title                                    : TrueHD / 5.1 Ch / 1326 kbps / Original
Language                                 : English
Default                                  : No
Forced                                   : No

Text
ID                                       : 4
Format                                   : UTF-8
Codec ID                                 : S_TEXT/UTF8
Codec ID/Info                            : UTF-8 Plain Text
Duration                                 : 2 h 14 min
Bit rate                                 : 56 b/s
Count of elements                        : 1604
Stream size                              : 55.0 KiB (0%)
Title                                    : Full
Language                                 : English
Default                                  : No
Forced                                   : No

Menu
00:00:00.000                             : en:Credits
00:02:15.594                             : en:Exaggeration
00:04:37.944                             : en:Kidnapped
00:07:12.390                             : en:Wrong Package
00:11:17.927                             : en:Forced Libation
00:14:26.449                             : en:Drunk Driving
00:17:53.197                             : en:In Custody
00:22:47.533                             : en:What a Performance!
00:26:44.394                             : en:Hotelbreaking
00:29:37.818                             : en:Becoming Kaplan
00:32:23.441                             : en:You Gentlemen
00:34:47.836                             : en:The United Nations
00:36:45.829                             : en:He's Got a Knife
00:38:29.390                             : en:...Mr. Thornhill
00:41:29.570                             : en:Grand Central
00:44:11.899                             : en:Strangers on a Train
00:46:24.073                             : en:"It's A Nice Face."
00:51:24.873                             : en:So Good to Him
00:54:54.374                             : en:Beats Flying
00:57:38.914                             : en:Message From Lady
01:00:17.864                             : en:To Many Redcaps
01:02:52.936                             : en:Travel Instructions
01:06:10.550                             : en:Prairie Stop Traffic
01:09:06.768                             : en:Catching a Bus
01:11:40.963                             : en:Crop Duster Attack
01:14:23.542                             : en:Crashing Halt
01:15:39.952                             : en:Surprise Visitor
01:19:01.820                             : en:A Favor
01:23:13.989                             : en:A Girl Like You
01:25:25.620                             : en:The Auction
01:28:08.200                             : en:Your Very Next Role
01:29:53.805                             : en:Bid for Survival
01:33:57.048                             : en:Special Orders
01:35:58.336                             : en:Not a Red Herring
01:40:37.281                             : en:Mount Rushmore
01:45:52.429                             : en:Meeting in the Woods
01:51:30.350                             : en:Stop! Stop.
01:55:07.150                             : en:Vandamm's House
01:58:23.847                             : en:Leonard's Revelation
02:02:21.751                             : en:Matchbook Warning
02:06:58.027                             : en:Stay Where You Are
02:08:48.638                             : en:Escape
02:10:28.571                             : en:Across the Monument
02:11:53.739                             : en:One Man Down
02:14:32.231                             : en:Leonard's Footwork
02:15:39.590                             : en:Sentimental Ending
Світлини




Джерело: &
Особиста оцінка: 0 - не дивився


Авторський реліз (завантажувати можна без реєстрації)
 Трекер:    Зареєстрований   

Завантажити / скачати фільм українською



відео для новачків



 Зареєстрований:   2020-06-21 22:51
 Розмір:   13.72 GB 
 Оцінка фільму:   10/10 (Голосів: 2)
   
Ваш часовий пояс: GMT + 2 Години

Нова тема   Відповісти