Паперовий будинок: Феномен / La casa de papel: El fenómeno / Money Heist: The Phenomenon (2020) AVC Ukr/Spa

Нові коментарі

Нова тема   Відповісти
Автор Повідомлення
Цікава ідея 
VIP


З нами з: 26.12.11
Востаннє: 09.07.20
Повідомлень: 514

2020-06-21 21:39  
| AVC | 1080p

Паперовий будинок: Феномен / La casa de papel: El fenómeno / Money Heist: The Phenomenon (2020) AVC Ukr/Spa


Паперовий будинок: Феномен / La casa de papel: El fenómeno / Money Heist: The Phenomenon (2020) AVC Ukr/Spa


Жанр: документальний
Країна: Іспанія



Кінокомпанія / телеканал: Vancouver Media, Netflix
Режисери: Хесус Кольменар, Алекс Родріго, Алехандро Бассоно
Актори: Едан Мосес, Урсула Корберо, Іціар Ітуньйо, Альваро Морте, Педро Алонсо, Альба Флоренс, Мігель Ерран

Сюжет:
Документальний фільм про те, як і чому серіал «Паперовий будинок» викликав хвилю ентузіазму по всьому світу і знайшов неймовірну популярність.


Перекладено та озвучено ТО "Цікава Ідея" за підтримки fishMD


Тривалість: 57 хв.

Якість: AVC
Відео:
кодек:
розмір кадру: 720 x 400
бітрейт: 1 100 кб/с

Аудіо # 1:
мова: українська | "Цікава Ідея"
переклад: професійний багатоголосий закадровий
кодек: 5.1
бітрейт: 448 кб/с

Аудіо # 2:
мова: іспанська
переклад: оригінал
кодек: E- 5.1
бітрейт: 640 кб/с

Субтитри # 1:
мова: українська
тип: програмні (м'які)
формат: *.srt
Info
Код:
Format                      :
Format version              : Version 4
File size                   : 899 MiB
Duration                    : 57 min 24 s
Overall bit rate            : 2 190 kb/s
Movie name                  : Паперовий будинок: Феномен / La casa de papel: El fenómeno / Money Heist: The Phenomenon (2020) AVC [Ukr.Spa] [Цікава Ідея]
Encoded date                : UTC 2020-06-21 18:31:08
Writing application         : v6.8.0 ('Theme for Great Cities') 32bit built on Mar  2 2014 21:27:07
Writing library             : libebml v1.3.0 + v1.4.1

Video
ID                          : 1
Format                      : AVC
Format/Info                 : Advanced Video Codec
Format profile              : [email protected]
Format settings             : CABAC / 5 Ref Frames
Format settings, CABAC      : Yes
Format settings, Reference  : 5 frames
Codec ID                    : V_MPEG4/ISO/AVC
Duration                    : 57 min 24 s
Bit rate                    : 1 100 kb/s
Width                       : 720 pixels
Height                      : 400 pixels
Display aspect ratio        : 16:9
Frame rate mode             : Constant
Frame rate                  : 24.000 FPS
Color space                 : YUV
Chroma subsampling          : 4:2:0
Bit depth                   : 8 bits
Scan type                   : Progressive
Bits/(Pixel*Frame)          : 0.159
Stream size                 : 435 MiB (48%)
Writing library             : core 152 r2851M ba24899
Encoding settings           : cabac=1 / ref=5 / deblock=1:-1:-1 / analyse=0x3:0x113 / me=umh / subme=9 / psy=1 / psy_rd=1.00:0.15 / mixed_ref=1 / me_range=16 / chroma_me=1 / trellis=2 / 8x8dct=1 / cqm=0 / deadzone=21,11 / fast_pskip=1 / chroma_qp_offset=-3 / threads=16 / lookahead_threads=1 / sliced_threads=0 / nr=0 / decimate=1 / interlaced=0 / bluray_compat=0 / constrained_intra=0 / bframes=3 / b_pyramid=2 / b_adapt=2 / b_bias=0 / direct=3 / weightb=1 / open_gop=0 / weightp=2 / keyint=250 / keyint_min=24 / scenecut=40 / intra_refresh=0 / rc_lookahead=50 / rc=2pass / mbtree=1 / bitrate=1100 / ratetol=1.0 / qcomp=0.60 / qpmin=0 / qpmax=69 / qpstep=4 / cplxblur=20.0 / qblur=0.5 / ip_ratio=1.40 / aq=1:1.00
Language                    : Spanish
Default                     : Yes
Forced                      : No

Audio #1
ID                          : 2
Format                      : AC-3
Format/Info                 : Audio Coding 3
Commercial name             : Dolby Digital
Codec ID                    : A_AC3
Duration                    : 57 min 24 s
Bit rate mode               : Constant
Bit rate                    : 448 kb/s
Channel(s)                  : 6 channels
Channel layout              : L R C LFE Ls Rs
Sampling rate               : 48.0 kHz
Frame rate                  : 31.250 FPS (1536 SPF)
Bit depth                   : 16 bits
Compression mode            : Lossy
Stream size                 : 184 MiB (20%)
Title                       : Українська
Language                    : Ukrainian
Service kind                : Complete Main
Default                     : Yes
Forced                      : No

Audio #2
ID                          : 3
Format                      : E-AC-3
Format/Info                 : Enhanced AC-3
Commercial name             : Dolby Digital Plus
Codec ID                    : A_EAC3
Duration                    : 57 min 24 s
Bit rate mode               : Constant
Bit rate                    : 640 kb/s
Channel(s)                  : 6 channels
Channel layout              : L R C LFE Ls Rs
Sampling rate               : 48.0 kHz
Frame rate                  : 31.250 FPS (1536 SPF)
Compression mode            : Lossy
Stream size                 : 263 MiB (29%)
Language                    : Spanish
Service kind                : Complete Main
Default                     : No
Forced                      : No

Text
ID                          : 4
Format                      : UTF-8
Codec ID                    : S_TEXT/UTF8
Codec ID/Info               : UTF-8 Plain Text
Title                       : Українська
Language                    : Ukrainian
Default                     : Yes
Forced                      : No
Скріншоти



Озвучено творчим об'єднанням:
Переклад: Федір Сидорук.
Ролі озвучили: Семен Птаха, Олексій Сафін, Юлія Малахова, Андрій Корзаченко, Олександр Чернов та Матвій Ніколаєв.


Авторський реліз (завантажувати можна без реєстрації)
 Трекер:    Зареєстрований   

Завантажити / скачати торрент



відео для новачків



 Зареєстрований:   2020-06-21 21:39
 Розмір:   899 MB 
 Оцінка:   8.6/10 (Голосів: 7)
   
MutuLI 
Відео Гуртом - фільмокрай
Відео Гуртом - фільмокрай


З нами з: 08.03.09
Востаннє: 09.07.20
Повідомлень: 1890

2020-06-24 19:28  
доріжка і субтитри на сервері доріжок, назви:
La casa de papel El fenomeno.(2020).00h57m24s.[MVO][5.1-448].24fps.[Hurtom-TSikava Ideya]
La casa de papel El fenomeno.(2020).00h57m24s.24fps.[Hurtom-TSikava Ideya].UkrForced
субтитри також є на opensubtitles.org та subscene.com

Ваш часовий пояс: GMT + 2 Години

Нова тема   Відповісти