Липучка / Flypaper (2011) AVC 3xUkr/Eng | sub Eng

Нові коментарі

Нова тема   Відповісти
Автор Повідомлення
Arsenfpu 
Відео Гуртом - фільмокрай
Відео Гуртом - фільмокрай


З нами з: 30.04.09
Востаннє: 02.07.20
Повідомлень: 7028

2020-06-21 18:54  
Липучка / Flypaper (2011) AVC 3xUkr/Eng | sub Eng

Липучка / Flypaper (2011) AVC 3xUkr/Eng | sub Eng


Жанр: кримінальний, комедія, детектив
Країна: Німеччина , США



Кінокомпанія: Film & Entertainment VIP Medienfonds 4 GmbH & Co. KG (I), Foresight Unlimited, Modern VideoFilm
Режисер: Роб Мінкофф
Актори: Октавія Спенсер, Патрік Демпсі, Ешлі Джадд, Джеффрі Тамбор, Мехі Файфер.

Сюжет:
Перед закриттям банку, в нього вриваються дві групи грабіжників. Відвідувачі та працівники банку опиняються між двох вогнів. Один з відвідувачів намагається примирити представників двох кримінальних груп - адже це єдиний шанс вижити для тих хто опинився в банку, а для нього шанс справити враження на дівчину-касира, в яку він закохався з першого погляду. Поступово наш герой розуміє, що схоже, всі крім нього опинилися в цьому банку в момент пограбування не випадково ...


Тривалість: 01:27:14
Якість:
Відео:
кодек:
розмір кадру: 1 136 х 484
бітрейт: 2 987 кб/с

Аудіо # 1:
мова: українська
переклад: професійний дубльований
кодек: 5.1
бітрейт: 448 кб/с

Аудіо # 2:
мова: українська
переклад: багатоголосий закадровий
кодек: 2.0
бітрейт: 192 кб/с

Аудіо # 3:
мова: українська
переклад: багатоголосий закадровий
кодек: 2.0
бітрейт: 192 кб/с

Аудіо # 4:
мова: англійська
переклад: оригінал
кодек: 2.0
бітрейт: 192 кб/с

Субтитри:
мова: англійська
тип: програмні (м'які)
формат: *.srt
Скріншоти














Про файл
General
Unique ID : 295053240324002298340698271415748501900 (0xDDF92FE40193E829FA32C825858FA18C)
Complete name : C:\Flypaper (2011) [3xUkr,Eng] AVC [Hurtom].
Format :
Format version : Version 4 / Version 2
File size : 2.48 GiB
Duration : 1 h 27 min
Overall bit rate : 4 078 kb/s
Movie name : Липучка / Flypaper (2011)
Encoded date : UTC 2020-06-21 15:05:13
Writing application : v21.0.0 ('Tardigrades Will Inherit The Earth') 32-bit
Writing library : libebml v1.3.5 + v1.4.8
Cover : Yes
Attachments : cover.jpg

Video
ID : 1
Format : AVC
Format/Info : Advanced Video Codec
Format profile : [email protected]
Format settings, CABAC : Yes
Format settings, ReFrames : 13 frames
Codec ID : V_MPEG4/ISO/AVC
Duration : 1 h 27 min
Bit rate : 2 987 kb/s
Width : 1 136 pixels
Height : 484 pixels
Display aspect ratio : 2.35:1
Frame rate mode : Constant
Frame rate : 23.976 (24000/1001) FPS
Color space : YUV
Chroma subsampling : 4:2:0
Bit depth : 8 bits
Scan type : Progressive
Bits/(Pixel*Frame) : 0.227
Stream size : 1.82 GiB (73%)
Writing library : core 119 r2106kMod 07efeb4
Encoding settings : cabac=1 / ref=13 / deblock=1:-3:-2 / analyse=0x3:0x133 / me=umh / subme=11 / psy=1 / fade_compensate=0.00 / psy_rd=0.90:0.03 / mixed_ref=1 / me_range=32 / chroma_me=1 / trellis=2 / 8x8dct=1 / cqm=0 / deadzone=21,11 / fast_pskip=1 / chroma_qp_offset=-3 / threads=6 / sliced_threads=0 / nr=0 / decimate=1 / interlaced=0 / bluray_compat=0 / constrained_intra=0 / bframes=13 / b_pyramid=2 / b_adapt=2 / b_bias=0 / direct=1 / weightb=1 / open_gop=0 / weightp=2 / keyint=250 / keyint_min=23 / scenecut=40 / intra_refresh=0 / rc=crf / mbtree=0 / crf=15.5000 / qcomp=0.70 / qpmin=0 / qpmax=69 / qpstep=4 / ip_ratio=1.40 / pb_ratio=1.20 / aq=2:0.70
Language : English
Default : Yes
Forced : No
Color range : Limited
Matrix coefficients : BT.709

Audio #1
ID : 2
Format : AC-3
Format/Info : Audio Coding 3
Mode extension : CM (complete main)
Format settings, Endianness : Big
Codec ID : A_AC3
Duration : 1 h 27 min
Bit rate mode : Constant
Bit rate : 448 kb/s
Channel(s) : 6 channels
Channel positions : Front: L C R, Side: L R, LFE
Sampling rate : 48.0 kHz
Frame rate : 31.250 FPS (1536 spf)
Compression mode : Lossy
Stream size : 280 MiB (11%)
Title : DVD
Language : Ukrainian
Default : Yes
Forced : Yes

Audio #2
ID : 3
Format : AC-3
Format/Info : Audio Coding 3
Mode extension : CM (complete main)
Format settings, Endianness : Big
Codec ID : A_AC3
Duration : 1 h 27 min
Bit rate mode : Constant
Bit rate : 256 kb/s
Channel(s) : 2 channels
Channel positions : Front: L R
Sampling rate : 48.0 kHz
Frame rate : 31.250 FPS (1536 spf)
Compression mode : Lossy
Stream size : 160 MiB (6%)
Title : 1+1
Language : Ukrainian
Default : No
Forced : No

Audio #3
ID : 4
Format : AC-3
Format/Info : Audio Coding 3
Mode extension : CM (complete main)
Format settings, Endianness : Big
Codec ID : A_AC3
Duration : 1 h 27 min
Bit rate mode : Constant
Bit rate : 192 kb/s
Channel(s) : 2 channels
Channel positions : Front: L R
Sampling rate : 48.0 kHz
Frame rate : 31.250 FPS (1536 spf)
Compression mode : Lossy
Stream size : 120 MiB (5%)
Title : amc
Language : Ukrainian
Default : No
Forced : No

Audio #4
ID : 5
Format : AC-3
Format/Info : Audio Coding 3
Mode extension : CM (complete main)
Format settings, Endianness : Big
Codec ID : A_AC3
Duration : 1 h 27 min
Bit rate mode : Constant
Bit rate : 192 kb/s
Channel(s) : 2 channels
Channel positions : Front: L R
Sampling rate : 48.0 kHz
Frame rate : 31.250 FPS (1536 spf)
Compression mode : Lossy
Stream size : 120 MiB (5%)
Language : English
Default : No
Forced : No

Text
ID : 6
Format : UTF-8
Codec ID : S_TEXT/UTF8
Codec ID/Info : UTF-8 Plain Text
Duration : 1 h 18 min
Bit rate : 92 b/s
Count of elements : 1386
Stream size : 53.6 KiB (0%)
Language : English
Default : No
Forced : No

Menu
00:00:00.000 : en:00:00:00.000
00:06:26.803 : en:00:06:26.803
00:14:44.217 : en:00:14:44.217
00:22:13.541 : en:00:22:13.541
00:30:18.650 : en:00:30:18.650
00:38:39.609 : en:00:38:39.609
00:46:52.852 : en:00:46:52.852
00:58:53.405 : en:00:58:53.405
01:05:45.233 : en:01:05:45.233
01:13:13.347 : en:01:13:13.347
01:20:24.570 : en:01:20:24.570
01:21:55.577 : en:01:21:55.577
Джерело:
За першу доріжку дякую пану AngryBirdsUA, за другу - SgBILko
Особиста оцінка: кльовий фільм!


 Трекер:    Зареєстрований   

Завантажити / скачати фільм українською



відео для новачків



 Зареєстрований:   2020-06-21 18:54
 Розмір:   2.48 GB 
 Оцінка фільму:   10/10 (Голосів: 3)
   
Інші релізи
   Липучка / Flypaper (2011) AVC 2xUkr/Eng | Sub Eng Sando7  5 / 0   1.49 GB   2019-07-06 15:08 
   Липучка / Flypaper (2011) Remux 1080p 2xUkr/Eng | Sub Eng boroznaya  0 / 1   15.66 GB   2018-06-03 13:14 
   Липучка / Flypaper (2011) 2xUkr/Eng AngryBirdsUA  7 / 0   1.88 GB   2013-04-03 11:23 
   Липучка / Flypaper (2011) 720p Ukr/Eng | sub Eng Dim-ON  2 / 0   3.78 GB   2011-10-18 20:16 
   Липучка / Flypaper (2011) 1080p Anonymous  4 / 0   5.91 GB   2011-10-12 22:10 
Ваш часовий пояс: GMT + 2 Години

Нова тема   Відповісти