Війна за Незалежність (30 епізодів) (2020) 1080p

Нові коментарі

Нова тема   Відповісти
Автор Повідомлення
sergiyko.5 
Забанено
Забанено


З нами з: 25.02.16
Востаннє: 29.10.20
Повідомлень: 3651

2020-06-21 13:22  
Війна за Незалежність (30 епізодів) (2020) 1080p

Війна за Незалежність (30 епізодів) (2020) 1080p

Жанр: Документальний
Країна: Україна
Телеканал: Прямий

Сюжет:
На початку 2014 року Україна зазнала військового нападу російської федерації. Вперше в новітній історії українці стали на захист незалежності своєї країни зі зброєю в руках. Серію епізодів російсько-української війни представив телеканал Прямий.


Тривалість: 00:30:00 серія
Якість:

Відео: кодек: розмір кадру: 1920 х 1080 бітрейт: 3000 кб/с
Аудіо: мова: українська переклад: оригінал кодек: 2.0 бітрейт: 128 кб/с
Перелік епізодів:
Війна за незалежність еп.1 (20.02.14-16.03.14)
Війна за незалежність еп.2 (16.03.14 - 31.03.14)
Війна за незалежність еп.3 (31.03.14 - 14.04.14)
Війна за незалежність еп.4 (14.04.14 - 30.04.14)
Війна за незалежність еп.5 (01.05.14 - 12.05.14)
Війна за незалежність еп.6 (13.05.14 - 24.05.14)
Війна за незалежність еп.7 (24.05.14 - 30.05.14)
Війна за незалежність еп.8 (1.06.14 - 13.06.14)
Війна за незалежність еп.9 (14.06.14 - 20.06.14)
Війна за незалежність еп.10 (20.06.14 - 30.06.14)
Війна за незалежність еп.11 (30.06.14 - 06.07.14)
Війна за незалежність еп.12 (06.07.14 - 16.07.14)
Війна за незалежність еп.13 МН-17
Війна за незалежність еп.14 (17.07.14 – 28.07.14)
Війна за незалежність еп.15 (28.07.14 –8.08.14)
Війна за незалежність еп.16 (10.08.14 - 17.08.14)
Війна за незалежність еп.17 (17.08.14 - 22.08.14)
Війна за Незалежність еп.18 (21.08.14 - 24.08.14)
Війна за Незалежність еп.19 (24.08.14 - 28.08.14)
Війна за Незалежність.E20_29.08.14 - 30.08.14
Війна за Незалежність.E21_30.08.14 - 04.09.14
Війна за Незалежність.E22_05.09.14 - 20.09.14
Війна за Незалежність.E23_21.09.14 - 28.09.14
Війна за Незалежність.E24_29.09.14 - 10.10.14
Війна за Незалежність.E25_11.10.14 - 21.10.14
Війна за Незалежність.E26_21.10.14 - 31.10.14
Війна за Незалежність.E27_01.11.14-06.11.14
Війна за Незалежність.E28_07.11.14-16.11.14
Війна за Незалежність.E29_17.11.14-30.11.14
Війна за Незалежність.E30_01.12.14-11.12.14
Про файл:
General
Complete name : D:\Documents\Війна за Незалежність\Війна за незалежність.E01.20.02.14-16.03.14.mp4
Format : MPEG-4
Format profile : Base Media
Codec ID : isom (isom/iso2/avc1/mp41)
File size : 667 MiB
Duration : 29 min 49 s
Overall bit rate : 3 128 kb/s
Writing application : Lavf58.20.100

Video
ID : 1
Format : AVC
Format/Info : Advanced Video Codec
Format profile : [email protected]
Format settings : CABAC / 3 Ref Frames
Format settings, CABAC : Yes
Format settings, Reference : 3 frames
Codec ID : avc1
Codec ID/Info : Advanced Video Coding
Duration : 29 min 49 s
Duration_FirstFrame : -40 ms
Bit rate : 2 995 kb/s
Width : 1 920 pixels
Height : 1 080 pixels
Display aspect ratio : 16:9
Frame rate mode : Variable
Frame rate : 25.000 FPS
Minimum frame rate : 25.000 FPS
Maximum frame rate : 25.014 FPS
Color space : YUV
Chroma subsampling : 4:2:0
Bit depth : 8 bits
Scan type : Progressive
Bits/(Pixel*Frame) : 0.058
Stream size : 639 MiB (96%)
Writing library : core 155 r2901 7d0ff22
Color range : Limited
Color primaries : BT.709
Transfer characteristics : BT.709
Matrix coefficients : BT.709
Codec configuration box : avcC

Audio
ID : 2
Format : LC
Format/Info : Advanced Audio Codec Low Complexity
Codec ID : mp4a-40-2
Duration : 29 min 49 s
Bit rate mode : Constant
Bit rate : 128 kb/s
Channel(s) : 2 channels
Channel layout : L R
Sampling rate : 44.1 kHz
Frame rate : 43.066 FPS (1024 SPF)
Compression mode : Lossy
Stream size : 27.3 MiB (4%)
Default : Yes
Alternate group : 1
Скріншоти:


Золотий реліз (завантажене не впливає на рейтинг)
 Трекер:    Зареєстрований   

Завантажити / скачати фільм українською



відео для новачків



 Зареєстрований:   2020-09-26 23:06
 Розмір:   21.4 GB 
 Оцінка фільму:   9.7/10 (Голосів: 30)
   
Форкуш 
VIP


З нами з: 03.02.10
Востаннє: 01.11.20
Повідомлень: 2867

2020-06-21 17:53  
Стали на захист.
sergiyko.5 
Забанено
Забанено


З нами з: 25.02.16
Востаннє: 29.10.20
Повідомлень: 3651

2020-07-09 12:31  
Торент оновлено. Додано 18-19 епізоди.
arkhyp 
Свій


З нами з: 21.02.09
Востаннє: 02.10.20
Повідомлень: 50

2020-07-28 20:00  
Автори фільму не володіють українською мовою за початкову школу. Це пародія на українську мову.
sergiyko.5 
Забанено
Забанено


З нами з: 25.02.16
Востаннє: 29.10.20
Повідомлень: 3651

2020-08-24 02:29  
Додав 20-26 епізоди.
sergiyko.5 
Забанено
Забанено


З нами з: 25.02.16
Востаннє: 29.10.20
Повідомлень: 3651

2020-09-26 23:07  
Торент оновлено. Додано 27-30 епізоди.
qwasasqw 
VIP


З нами з: 01.01.11
Востаннє: 01.11.20
Повідомлень: 1315

2020-09-27 12:35  
arkhyp написано:
Автори фільму не володіють українською мовою за початкову школу. Це пародія на українську мову.

В чому суть таких коментарів? Ви десь бачили ідеальну чистоту укр мови в побуті? Більшість населення центру, півдня і сходу, а в Києві, то взагалі 75 % - переходять з рос. на українську.. І так, це має певні наслідки в тому числі русизми, як на заході - є полонізми.. Чи краще, не переходити на укр мову, щоб її "не кавєркать", і говорити російською, щоб ви не писали гнівних коментарів? Ну чесне слово...Чи давайте, ще змусимо архаїзмами говорити, типу - "Соціяльний клюб", щоб вони точно не перейшли ніколи на українську..
Це проміжний етап українізації, коли людина думає російською і говорить українською..

Щодо циклу - дякую, він чудовий...Часто дивився на ютубі..Ніяких проколів я там не чув, щоб вважати, що диктори аж не знають мови... Хронологічно показана історія бойових дій на сході, потижнево..Рекомендую всім..

Ваш часовий пояс: GMT + 2 Години

Нова тема   Відповісти