Принцеса Карабу: Невигадана історія / Princess Caraboo (1994) 1080p Ukr/Eng | Sub Eng

Нові коментарі

Нова тема   Відповісти
Автор Повідомлення
Anonymous 







2020-06-21 13:06  
Принцеса Карабу: Невигадана історія / Princess Caraboo (1994) 1080p Ukr/Eng | Sub Eng

Принцеса Карабу: Невигадана історія / Princess Caraboo (1994) 1080p Ukr/Eng | Sub Eng


Жанр: драма, історичний
Країна: Велика Британія, США



Кінокомпанія: Ardican Films, Beacon Communications, Longfellow Pictures
Режисер: Майкл Остін
Актори: Джим Бродбент, Фібі Кейтс, Венді Хюз, Кевін Клайн, Джон Літгоу, Стівен Рі, Пітер Айр, Жаклін Пірс, Роджер Ллойд-Пек, Джон Велс, Джон Лінч, Джон Сешнз, Кейт Ешфілд

Сюжет:
Англія початок XIX століття. У багатій дворянській родині Уоррелл з'являється красива жінка, обвинувачена у жебракуванні, що в Англії каралося трьома місяцями в'язниці. З'ясовується, що вона королівської крові, принцеса Карабу з далекої східної країни. Насправді незнайомка була не тією, за яку себе видавала...


Тривалість: 01:36:53
Якість: 1080p
Відео:
кодек:
розмір кадру: 1920х1036
бітрейт: 11.5 Mб/с

Аудіо # 1:
мова: українська
переклад: двоголосий закадровий TV4
кодек: 2.0
бітрейт: 192 кб/с

Аудіо # 2:
мова: англійська
переклад: оригінал
кодек: 2.0
бітрейт: 1509 кб/с

Субтитри:
мова: англійська
тип: програмні (м'які)
формат: *.srt
Info
General
Unique ID : 250998289144985461587943013296920745222 (0xBCD48319576707F58324917CD6DA5506)
Complete name : E:\Toloka\2020\Princess Caraboo (1994) 1080p.
Format :
Format version : Version 4
File size : 8.93 GiB
Duration : 1 h 36 min
Overall bit rate : 13.2 Mb/s
Encoded date : UTC 2020-06-21 09:59:48
Writing application : v6.1.0 ('Old Devil') built on Mar 4 2013 09:10:42
Writing library : libebml v1.3.0 + v1.4.0

Video
ID : 1
Format : AVC
Format/Info : Advanced Video Codec
Format profile : [email protected]
Format settings : CABAC / 4 Ref Frames
Format settings, CABAC : Yes
Format settings, Reference : 4 frames
Codec ID : V_MPEG4/ISO/AVC
Duration : 1 h 36 min
Bit rate : 11.5 Mb/s
Width : 1 920 pixels
Height : 1 036 pixels
Display aspect ratio : 1.85:1
Frame rate mode : Constant
Frame rate : 23.976 (24000/1001) FPS
Color space : YUV
Chroma subsampling : 4:2:0
Bit depth : 8 bits
Scan type : Progressive
Bits/(Pixel*Frame) : 0.241
Stream size : 7.60 GiB (85%)
Writing library : core 148 r2748 97eaef2
Encoding settings : cabac=1 / ref=4 / deblock=1:-2:-2 / analyse=0x3:0x113 / me=umh / subme=9 / psy=1 / psy_rd=1.00:0.15 / mixed_ref=1 / me_range=16 / chroma_me=1 / trellis=2 / 8x8dct=1 / cqm=0 / deadzone=21,11 / fast_pskip=1 / chroma_qp_offset=-3 / threads=72 / lookahead_threads=3 / sliced_threads=0 / nr=0 / decimate=1 / interlaced=0 / bluray_compat=0 / constrained_intra=0 / bframes=3 / b_pyramid=2 / b_adapt=1 / b_bias=0 / direct=3 / weightb=1 / open_gop=0 / weightp=2 / keyint=250 / keyint_min=25 / scenecut=40 / intra_refresh=0 / rc_lookahead=50 / rc=2pass / mbtree=1 / bitrate=11500 / ratetol=1.0 / qcomp=0.60 / qpmin=0 / qpmax=69 / qpstep=4 / cplxblur=20.0 / qblur=0.5 / vbv_maxrate=31250 / vbv_bufsize=31250 / nal_hrd=none / filler=0 / ip_ratio=1.40 / aq=1:1.00
Language : English
Default : Yes
Forced : No
Statistics Tags Issue : v47.0.0 ('Black Flag') 64-bit 2020-06-12 16:46:16 / v6.1.0 ('Old Devil') built on Mar 4 2013 09:10:42 2020-06-21 09:59:48
FromStats_BitRate : 11496994
FromStats_Duration : 01:36:52.766000000
FromStats_FrameCount : 139367
FromStats_StreamSize : 8353667354
Duration_Source : General_Duration

Audio #1
ID : 2
Format : AC-3
Format/Info : Audio Coding 3
Commercial name : Dolby Digital
Codec ID : A_AC3
Duration : 1 h 36 min
Bit rate mode : Constant
Bit rate : 192 kb/s
Channel(s) : 2 channels
Channel layout : L R
Sampling rate : 48.0 kHz
Frame rate : 31.250 FPS (1536 SPF)
Compression mode : Lossy
Stream size : 133 MiB (1%)
Title : UKR (TV4)
Language : Ukrainian
Service kind : Complete Main
Default : Yes
Forced : Yes
Duration_Source : General_Duration

Audio #2
ID : 3
Format :
Format/Info : Digital Theater Systems
Codec ID : A_DTS
Duration : 1 h 36 min
Bit rate mode : Constant
Bit rate : 1 509 kb/s
Channel(s) : 2 channels
Channel layout : L R
Sampling rate : 48.0 kHz
Frame rate : 93.750 FPS (512 SPF)
Bit depth : 24 bits
Compression mode : Lossy
Stream size : 1.02 GiB (11%)
Language : English
Default : No
Forced : No
Statistics Tags Issue : v47.0.0 ('Black Flag') 64-bit 2020-06-12 16:46:16 / v6.1.0 ('Old Devil') built on Mar 4 2013 09:10:42 2020-06-21 09:59:48
FromStats_BitRate : 1509000
FromStats_Duration : 01:36:53.024000000
FromStats_FrameCount : 544971
FromStats_StreamSize : 1096481652
Duration_Source : General_Duration

Text
ID : 4
Format : UTF-8
Codec ID : S_TEXT/UTF8
Codec ID/Info : UTF-8 Plain Text
Title : ENG
Language : English
Default : Yes
Forced : No
Statistics Tags Issue : v47.0.0 ('Black Flag') 64-bit 2020-06-12 16:46:16 / v6.1.0 ('Old Devil') built on Mar 4 2013 09:10:42 2020-06-21 09:59:48
FromStats_BitRate : 56
FromStats_Duration : 01:33:01.029000000
FromStats_FrameCount : 1131
FromStats_StreamSize : 39733

Menu
00:00:00.000 : en:Chapter 01
00:07:28.698 : en:Chapter 02
00:17:03.147 : en:Chapter 03
00:25:51.383 : en:Chapter 04
00:34:23.686 : en:Chapter 05
00:41:26.150 : en:Chapter 06
00:49:57.119 : en:Chapter 07
00:57:56.639 : en:Chapter 08
01:05:39.518 : en:Chapter 09
01:13:29.822 : en:Chapter 10
01:20:53.515 : en:Chapter 11
01:29:15.308 : en:Chapter 12
Скріншоти




За доріжку подяка п. НТН
Особиста подяка пану denixx за надану матеріальну допомогу на підтримку цього і майбутніх релізів.
Джерело:


Срібний реліз (на рейтинг впливає 50% завантаженого)
 Трекер:    Зареєстрований   

Завантажити / скачати фільм українською



відео для новачків



 Зареєстрований:   2020-06-21 13:06
 Розмір:   8.93 GB 
 Оцінка фільму:   10/10 (Голосів: 2)
   
Інші релізи
Ваш часовий пояс: GMT + 2 Години

Нова тема   Відповісти