Тяжкі гроші / Hard Cash (2002) AVC 3xUkr/Eng | sub Eng

Нові коментарі

Нова тема   Відповісти
Автор Повідомлення
Arsenfpu 
Відео Гуртом - фільмокрай
Відео Гуртом - фільмокрай


З нами з: 30.04.09
Востаннє: 03.07.20
Повідомлень: 7031

2020-06-21 00:53  
Тяжкі гроші / Hard Cash (2002) AVC 3xUkr/Eng | sub Eng

Тяжкі гроші / Hard Cash (2002) AVC 3xUkr/Eng | sub Eng


Жанр: бойовик, трилер, кримінальний
Країна: США



Кінокомпанія: City Heat Productions / Millennium Films / Canyon Productions / DEJ Productions / Emmett/Furla/Nittolo Films / Nu-Image Films
Режисер: Предраг Антонієвич
Актори: Крістіан Слейтер, Вел Кілмер, Сара Доунінг, Бальтазар Гетті

Сюжет:
Відсидівши термін, на свободу виходить знаменитий злодій Томас Тейлор, якому потрібно розім'ятися і підзаробити після вимушеного відпочинку. Разом зі своїми надійними напарниками він грабує букмекерську контору, але незабаром радість переміняється досадою - гроші мічені, а на порозі вже стоїть заповзятливий агент ФБР Корнелл, шантажем змушує безстрашну команду пограбувати для нього інкасаторський фургон. Тейлор погоджується провернути цю ризиковану операцію і розробляє геніальний план, який не може зірватися, адже на кону стоїть не тільки його свобода, а й життя його дочки, що стала заручницею жорстокого Корнелла ...


Тривалість: 01:38:22
Якість:
Відео:
кодек:
розмір кадру: 1 024 х 574
бітрейт: 1 948 кб/с

Аудіо # 1:
мова: українська
переклад: двоголосий закадровий
кодек: 2.0
бітрейт: 192 кб/с

Аудіо # 2:
мова: українська
переклад: двоголосий закадровий
кодек: 2.0
бітрейт: 192 кб/с
примітка: бракує останніх 15 хв. запису, позичено з першої доріжки

Аудіо # 3:
мова: українська
переклад: двоголосий закадровий
кодек: 2.0
бітрейт: 192 кб/с
примітка: якість звуку дуже кепська

Аудіо # 4:
мова: англійська
переклад: оригінал
кодек: 2.0
бітрейт: 192 кб/с

Субтитри:
мова: англійська
тип: програмні (м'які)
формат: *.srt
Скріншоти














Про файл
General
Unique ID : 82010133521786138081343625835279623351 (0x3DB293C2AD3AA580486293261A6124B7)
Complete name : C:\Hard Cash (2002) [2xUkr,Eng] AVC [Hurtom].
Format :
Format version : Version 4 / Version 2
File size : 1.74 GiB
Duration : 1 h 38 min
Overall bit rate : 2 526 kb/s
Movie name : Тяжкі гроші / Hard Cash (2002)
Encoded date : UTC 2020-06-20 21:04:09
Writing application : v21.0.0 ('Tardigrades Will Inherit The Earth') 32-bit
Writing library : libebml v1.3.5 + v1.4.8
Cover : Yes
Attachments : cover.jpg

Video
ID : 1
Format : AVC
Format/Info : Advanced Video Codec
Format profile : [email protected]
Format settings, CABAC : Yes
Format settings, ReFrames : 9 frames
Codec ID : V_MPEG4/ISO/AVC
Duration : 1 h 38 min
Bit rate : 1 948 kb/s
Width : 1 024 pixels
Height : 574 pixels
Display aspect ratio : 16:9
Frame rate mode : Constant
Frame rate : 24.000 FPS
Color space : YUV
Chroma subsampling : 4:2:0
Bit depth : 8 bits
Scan type : Progressive
Bits/(Pixel*Frame) : 0.138
Stream size : 1.34 GiB (77%)
Writing library : core 133 r2334 a3ac64b
Encoding settings : cabac=1 / ref=9 / deblock=1:-2:-1 / analyse=0x3:0x113 / me=umh / subme=11 / psy=1 / psy_rd=1.00:0.20 / mixed_ref=1 / me_range=48 / chroma_me=1 / trellis=2 / 8x8dct=1 / cqm=0 / deadzone=21,11 / fast_pskip=0 / chroma_qp_offset=-3 / threads=3 / lookahead_threads=1 / sliced_threads=0 / nr=0 / decimate=0 / interlaced=0 / bluray_compat=0 / constrained_intra=0 / bframes=12 / b_pyramid=2 / b_adapt=2 / b_bias=0 / direct=3 / weightb=1 / open_gop=0 / weightp=2 / keyint=240 / keyint_min=24 / scenecut=40 / intra_refresh=0 / rc_lookahead=40 / rc=2pass / mbtree=0 / bitrate=1948 / ratetol=1.0 / qcomp=0.60 / qpmin=0 / qpmax=69 / qpstep=4 / cplxblur=20.0 / qblur=0.5 / vbv_maxrate=50000 / vbv_bufsize=50000 / nal_hrd=none / ip_ratio=1.40 / pb_ratio=1.30 / aq=1:1.00
Language : English
Default : Yes
Forced : Yes

Audio #1
ID : 2
Format : AC-3
Format/Info : Audio Coding 3
Mode extension : CM (complete main)
Format settings, Endianness : Big
Codec ID : A_AC3
Duration : 1 h 38 min
Bit rate mode : Constant
Bit rate : 192 kb/s
Channel(s) : 2 channels
Channel positions : Front: L R
Sampling rate : 48.0 kHz
Frame rate : 31.250 FPS (1536 spf)
Compression mode : Lossy
Stream size : 135 MiB (8%)
Title : TBI
Language : Ukrainian
Default : Yes
Forced : Yes

Audio #2
ID : 3
Format : AC-3
Format/Info : Audio Coding 3
Mode extension : CM (complete main)
Format settings, Endianness : Big
Codec ID : A_AC3
Duration : 1 h 38 min
Bit rate mode : Constant
Bit rate : 192 kb/s
Channel(s) : 2 channels
Channel positions : Front: L R
Sampling rate : 48.0 kHz
Frame rate : 31.250 FPS (1536 spf)
Compression mode : Lossy
Stream size : 135 MiB (8%)
Title : 2+2
Language : Ukrainian
Default : No
Forced : No

Audio #3
ID : 4
Format : AC-3
Format/Info : Audio Coding 3
Mode extension : CM (complete main)
Format settings, Endianness : Big
Codec ID : A_AC3
Duration : 1 h 38 min
Bit rate mode : Constant
Bit rate : 192 kb/s
Channel(s) : 2 channels
Channel positions : Front: L R
Sampling rate : 48.0 kHz
Frame rate : 31.250 FPS (1536 spf)
Compression mode : Lossy
Stream size : 135 MiB (8%)
Language : English
Default : No
Forced : No

Text
ID : 5
Format : UTF-8
Codec ID : S_TEXT/UTF8
Codec ID/Info : UTF-8 Plain Text
Duration : 1 h 33 min
Bit rate : 44 b/s
Count of elements : 935
Stream size : 30.3 KiB (0%)
Language : English
Default : No
Forced : No
Джерело:
За українські доріжки дякую п. mik86, bodia87, РОМЕО
Особиста оцінка: не дивився


Срібний реліз (на рейтинг впливає 50% завантаженого)
 Трекер:    Зареєстрований   

Завантажити / скачати фільм українською



відео для новачків



 Зареєстрований:   2020-06-21 12:01
 Розмір:   1.87 GB 
 Оцінка фільму:   8/10 (Голосів: 6)
   
Arsenfpu 
Відео Гуртом - фільмокрай
Відео Гуртом - фільмокрай


З нами з: 30.04.09
Востаннє: 03.07.20
Повідомлень: 7031

2020-06-21 12:01  
Реліз оновлено!
Додане озвучення від ICTV.

ika1963 
Відео Гуртом - дизайнер
Відео Гуртом - дизайнер


З нами з: 13.05.10
Востаннє: 03.07.20
Повідомлень: 300

2020-06-21 12:49  
веселий фільм
Ваш часовий пояс: GMT + 2 Години

Нова тема   Відповісти