Тобі кінець! / Ти - наступний / You're Next (2011) 1080p 2xUkr/Eng | Sub Eng

Нові коментарі

Нова тема   Відповісти
Автор Повідомлення
Anonymous 







2020-06-20 22:47  
Тобі кінець! / Ти - наступний / You're Next (2011) 1080p 2xUkr/Eng | Sub Eng


Альтернативні постери:







Жанр: жахи, трилер
Країна: США



Кінокомпанія: HanWay Films, Snoot Entertainment
Режисер: Адам Вінґард
Актори: Ніколас Туччі, Венді Ґлен, ЕйДжей Боввен, Джо Сванберґ, Барбара Кремптон, Роб Моран

Сюжет:
Кріспіан Девідсон і його подруга Ерін відправляються на сімейну вечірку в заміський маєток, що належить батькам хлопця. Однак насолодитися спілкуванням з родичами не вдається нікому. У будинок вриваються декілька маніяків у звіриних масках, мета яких - винищити всіх присутніх. Але лиходії явно не розраховували на те, що Ерін володіє не тільки інстинктом самозбереження, а й досвідом виживання в екстремальних умовах...

Тривалість: 01:36:24
Якість: 1080p
Відео:
Кодек:
Розмір кадру: 1920 x 800
Бітрейт: 13.2 Мбіт/с

Аудіо #1:
Мова: українська
Переклад: професійний дубльований | AAA-Sound
Кодек: 5.1
Бітрейт: 384 Кбіт/с

Аудіо #2:
Мова: українська
Переклад: багатоголосий закадровий [НЛО ТВ]
Кодек: 2.0
Бітрейт: 192 Кбіт/с

Аудіо #3:
Мова: англійська
Переклад: Оригінал
Кодек: 5.1
Бітрейт: 1509 Кбіт/с

Субтитри:
Мова: англійська | Повні | SDH
Тип: програмні (м'які)
Формат: *.srt

Info


General
Unique ID : 316474246333896977010539053188805947166 (0xEE16B90712D2ACA52AAE037ADC59EF1E)
Format :
Format version : Version 4
File size : 10.1 GiB
Duration : 1 h 36 min
Overall bit rate : 15.0 Mb/s
Movie name : You're Next (2011) x264x 1080p [2xUkrEng][SubEng] [Hurtom]
Encoded date : UTC 2020-06-20 19:27:56
Writing application : v46.0.0 ('No Deeper Escape') 64-bit
Writing library : libebml v1.3.10 + v1.5.2
Attachments : poster_ukr.jpg / poster_eng1.jpg / poster_eng2.jpg / poster_eng3.jpg

Video
ID : 1
Format : AVC
Format/Info : Advanced Video Codec
Format profile : [email protected]
Format settings : CABAC / 5 Ref Frames
Format settings, CABAC : Yes
Format settings, Reference fra : 5 frames
Codec ID : V_MPEG4/ISO/AVC
Duration : 1 h 34 min
Bit rate : 13.2 Mb/s
Width : 1 920 pixels
Height : 800 pixels
Display aspect ratio : 2.40:1
Frame rate mode : Constant
Frame rate : 23.976 (24000/1001) FPS
Color space : YUV
Chroma subsampling : 4:2:0
Bit depth : 8 bits
Scan type : Progressive
Bits/(Pixel*Frame) : 0.359
Stream size : 8.72 GiB (86%)
Title : You're Next (2011) x264x 1080p
Writing library : core 157 r2935 545de2f
Encoding settings : cabac=1 / ref=5 / deblock=1:-3:-3 / analyse=0x3:0x133 / me=umh / subme=10 / psy=1 / psy_rd=1.00:0.00 / mixed_ref=1 / me_range=24 / chroma_me=1 / trellis=2 / 8x8dct=1 / cqm=0 / deadzone=21,11 / fast_pskip=0 / chroma_qp_offset=-2 / threads=18 / lookahead_threads=3 / sliced_threads=0 / nr=0 / decimate=1 / interlaced=0 / bluray_compat=0 / constrained_intra=0 / bframes=8 / b_pyramid=2 / b_adapt=2 / b_bias=0 / direct=3 / weightb=1 / open_gop=0 / weightp=2 / keyint=240 / keyint_min=24 / scenecut=40 / intra_refresh=0 / rc_lookahead=60 / rc=crf / mbtree=1 / crf=13.2 / qcomp=0.60 / qpmin=0 / qpmax=69 / qpstep=4 / vbv_maxrate=62500 / vbv_bufsize=78125 / crf_max=0.0 / nal_hrd=none / filler=0 / ip_ratio=1.40 / aq=1:1.00
Language : English
Default : Yes
Forced : No
Color range : Limited
Color primaries : BT.709
Transfer characteristics : BT.709
Matrix coefficients : BT.709

Audio #1
ID : 2
Format : AC-3
Format/Info : Audio Coding 3
Commercial name : Dolby Digital
Codec ID : A_AC3
Duration : 1 h 34 min
Bit rate mode : Constant
Bit rate : 384 kb/s
Channel(s) : 6 channels
Channel layout : L R C LFE Ls Rs
Sampling rate : 48.0 kHz
Frame rate : 31.250 FPS (1536 SPF)
Compression mode : Lossy
Stream size : 259 MiB (3%)
Title : DUB [AAA-Sound] 5.1 @ 384 Кбіт/с
Language : Ukrainian
Service kind : Complete Main
Default : Yes
Forced : No

Audio #2
ID : 3
Format : AC-3
Format/Info : Audio Coding 3
Commercial name : Dolby Digital
Codec ID : A_AC3
Duration : 1 h 34 min
Bit rate mode : Constant
Bit rate : 192 kb/s
Channel(s) : 2 channels
Channel layout : L R
Sampling rate : 48.0 kHz
Frame rate : 31.250 FPS (1536 SPF)
Compression mode : Lossy
Stream size : 130 MiB (1%)
Title : MVO [НЛО-ТВ] 2.0 @ 192 Кбіт/с
Language : Ukrainian
Service kind : Complete Main
Default : No
Forced : No

Audio #3
ID : 4
Format :
Format/Info : Digital Theater Systems
Codec ID : A_DTS
Duration : 1 h 34 min
Bit rate mode : Constant
Bit rate : 1 509 kb/s
Channel(s) : 6 channels
Channel layout : C L R Ls Rs LFE
Sampling rate : 48.0 kHz
Frame rate : 93.750 FPS (512 SPF)
Bit depth : 24 bits
Compression mode : Lossy
Delay relative to video : 11 ms
Stream size : 1 019 MiB (10%)
Title : [Оригінал] 5.1 @ 1509 Кбіт/с
Language : English
Default : No
Forced : No

Text #1
ID : 5
Format : UTF-8
Codec ID : S_TEXT/UTF8
Codec ID/Info : UTF-8 Plain Text
Duration : 1 h 35 min
Bit rate : 40 b/s
Count of elements : 829
Stream size : 28.2 KiB (0%)
Title : Повні
Language : English
Default : No
Forced : No

Text #2
ID : 6
Format : UTF-8
Codec ID : S_TEXT/UTF8
Codec ID/Info : UTF-8 Plain Text
Duration : 1 h 35 min
Bit rate : 46 b/s
Count of elements : 1087
Stream size : 32.6 KiB (0%)
Title : SDH
Language : English
Default : No
Forced : No

Menu
00:00:00.000 : :00:00:00.000
00:04:26.099 : :00:04:26.015
00:15:08.449 : :00:15:08.365
00:22:49.869 : :00:22:49.868
00:33:38.892 : :00:33:38.850
00:44:59.906 : :00:44:59.821
00:54:07.995 : :00:54:07.994
01:01:25.682 : :01:01:25.681
01:11:12.059 : :01:11:12.017
01:17:46.078 : :01:17:46.077
01:24:08.126 : :01:24:08.126
01:31:25.063 : :01:31:24.979
Скріншоти









Перша доріжка - karvai0
Друга доріжка - РОМЕО, Arsenfpu

Джерело:


 Трекер:    Зареєстрований   

Завантажити / скачати фільм українською



відео для новачків



 Зареєстрований:   2020-06-20 22:47
 Розмір:   10.1 GB 
 Оцінка фільму:   9/10 (Голосів: 1)
   
Ваш часовий пояс: GMT + 2 Години

Нова тема   Відповісти