Чим зайнятися мерцю в Денвері / Things to Do in Denver When You're Dead (1995) 720p Ukr/Eng

Нові коментарі

Нова тема   Відповісти
Автор Повідомлення
Anonymous 







2020-06-20 20:29  
Чим зайнятися мерцю в Денвері / Things to Do in Denver When You're Dead (1995) 720p Ukr/Eng

Чим зайнятися мерцю в Денвері / Things to Do in Denver When You're Dead (1995) 720p Ukr/Eng


Жанр: драма, кримінальний
Країна: США



Кінокомпанія: Miramax, Woods Entertainment
Режисер: Гері Фледер
Актори: Енді Гарсіа, Крістофер Ллойд, Вільям Форсайт, Білл Нанн, Тріт Вільямс, Джек Уорден, Стів Бушемі, Файруза Балк, Габріель Анвар, Крістофер Уокен

Сюжет:
Це історія про Джиммі-Святого, який вчинив «кадрову» помилку при підборі людей для дріб'язкової справи. Могутній і вкрай неприємний бос злочинного світу, паралізований від шиї і нижче, попросив старого друга налякати хлопця дівчини, в яку одержимо закоханий його придуркуватий син, а відібрані Джиммі для справи бовдури замість цього убили обох. Розлючений Уокен наказує вбити всіх, крім Джиммі, давши другу 48 годин, щоб зникнути. Але Джиммі не може кинути друзів, та й у самого тільки що зав'язався роман з чарівною юною красунею ...


Тривалість: 01:55:34
Якість: 720p
Відео:
кодек:
розмір кадру: 1280х696
бітрейт: 5 261 кб/с

Аудіо # 1:
мова: українська
переклад: багатоголосий закадровий
кодек: 2.0
бітрейт: 192 кб/с

Аудіо # 2:
мова: англійська
переклад: оригінал
кодек: 5.1
бітрейт: 1 509 кб/с
Info
General
Unique ID : 186922033708087403788434513374225219298 (0x8C9FDFCB77A96CFA9C870F22E589BEE2)
Complete name : E:\Toloka\2020\Things to Do in Denver When You're Dead (1995) 720p.
Format :
Format version : Version 4
File size : 5.62 GiB
Duration : 1 h 55 min
Overall bit rate : 6 961 kb/s
Encoded date : UTC 2020-06-20 17:19:23
Writing application : v6.1.0 ('Old Devil') built on Mar 4 2013 09:10:42
Writing library : libebml v1.3.0 + v1.4.0

Video
ID : 1
Format : AVC
Format/Info : Advanced Video Codec
Format profile : [email protected]
Format settings : CABAC / 5 Ref Frames
Format settings, CABAC : Yes
Format settings, Reference : 5 frames
Codec ID : V_MPEG4/ISO/AVC
Duration : 1 h 55 min
Bit rate : 5 261 kb/s
Width : 1 280 pixels
Height : 696 pixels
Display aspect ratio : 1.85:1
Frame rate mode : Constant
Frame rate : 23.976 (24000/1001) FPS
Color space : YUV
Chroma subsampling : 4:2:0
Bit depth : 8 bits
Scan type : Progressive
Bits/(Pixel*Frame) : 0.246
Stream size : 4.13 GiB (74%)
Writing library : core 119 r2106 07efeb4
Encoding settings : cabac=1 / ref=5 / deblock=1:0:0 / analyse=0x3:0x113 / me=umh / subme=8 / psy=1 / psy_rd=1.00:0.00 / mixed_ref=1 / me_range=16 / chroma_me=1 / trellis=1 / 8x8dct=1 / cqm=0 / deadzone=21,11 / fast_pskip=1 / chroma_qp_offset=-2 / threads=12 / sliced_threads=0 / nr=0 / decimate=1 / interlaced=0 / bluray_compat=0 / constrained_intra=0 / bframes=3 / b_pyramid=2 / b_adapt=2 / b_bias=0 / direct=3 / weightb=1 / open_gop=0 / weightp=2 / keyint=240 / keyint_min=24 / scenecut=40 / intra_refresh=0 / rc_lookahead=50 / rc=2pass / mbtree=1 / bitrate=5261 / ratetol=1.0 / qcomp=0.60 / qpmin=0 / qpmax=69 / qpstep=4 / cplxblur=20.0 / qblur=0.5 / ip_ratio=1.40 / aq=1:1.00
Language : English
Default : Yes
Forced : No
Duration_Source : General_Duration

Audio #1
ID : 2
Format : AC-3
Format/Info : Audio Coding 3
Commercial name : Dolby Digital
Codec ID : A_AC3
Duration : 1 h 55 min
Bit rate mode : Constant
Bit rate : 192 kb/s
Channel(s) : 2 channels
Channel layout : L R
Sampling rate : 48.0 kHz
Frame rate : 31.250 FPS (1536 SPF)
Compression mode : Lossy
Stream size : 159 MiB (3%)
Title : UKR (AMC)
Language : Ukrainian
Service kind : Complete Main
Default : Yes
Forced : Yes
Duration_Source : General_Duration

Audio #2
ID : 3
Format :
Format/Info : Digital Theater Systems
Codec ID : A_DTS
Duration : 1 h 55 min
Bit rate mode : Constant
Bit rate : 1 509 kb/s
Channel(s) : 6 channels
Channel layout : C L R Ls Rs LFE
Sampling rate : 48.0 kHz
Frame rate : 93.750 FPS (512 SPF)
Bit depth : 24 bits
Compression mode : Lossy
Stream size : 1.22 GiB (22%)
Language : English
Default : No
Forced : No
Duration_Source : General_Duration

Menu
00:00:00.000 : en:00:00:00.000
00:10:39.722 : en:00:10:39.722
00:20:01.200 : en:00:20:01.200
00:29:02.032 : en:00:29:02.032
00:40:41.689 : en:00:40:41.689
00:49:41.729 : en:00:49:41.729
01:00:02.891 : en:01:00:02.891
01:10:04.575 : en:01:10:04.575
01:21:22.461 : en:01:21:22.461
01:31:22.894 : en:01:31:22.894
01:40:48.751 : en:01:40:48.751
01:50:55.566 : en:01:50:55.566
Скріншоти




За доріжку подяка п.: slavik_v_z, Arsenfpu
Особиста подяка пану denixx за надану матеріальну допомогу на підтримку цього і майбутніх релізів.
Джерело:


Срібний реліз (на рейтинг впливає 50% завантаженого)
 Трекер:    Зареєстрований   

Завантажити / скачати фільм українською



відео для новачків



 Зареєстрований:   2020-06-20 20:29
 Розмір:   5.62 GB 
 Оцінка фільму:   9.8/10 (Голосів: 4)
   
kino. 
Модератор відео


З нами з: 27.06.10
Востаннє: 24.09.20
Повідомлень: 2900

2020-06-21 17:03  
Скріншоти повинні бути у форматі .png
Anonymous 







2020-06-21 17:15  
kino.
замінив

Ваш часовий пояс: GMT + 2 Години

Нова тема   Відповісти