Життя Кабачка / Ma vie de Courgette (2016) 1080p Ukr/Fre | sub Ukr

Нові коментарі

Нова тема   Відповісти
Автор Повідомлення
Anonymous 







2020-06-20 18:19  
Життя Кабачка / Ma vie de Courgette (2016) 1080p Ukr/Fre | sub Ukr

Життя Кабачка / Ma vie de Courgette (2016) 1080p Ukr/Fre | sub Ukr
DVD



Жанр: анімація, комедія, драма
Країна: Швейцарія, Франція



Кінокомпанія: Rita Productions, Blue Spirit Animation, Gébéka Films
Режисер: Клод Баррас
Актори: Гаспард Шлаттер, Сікстін Мурат, Полін Жакуд, Мішель Вуйермоз, Рауль Рібера та ін.

Сюжет:
Після смерті матері маленький Ікар потрапляє до притулку, де кожна дитина розповідає йому свою непросту історію. У новому домі хлопчик отримує кумедне прізвисько, знаходить товаришів і дізнається, що таке міцна дружба, турбота і справжня любов.


Тривалість: 01:05:49
Якість:
Відео:
кодек:
розмір кадру: 1920 х 1080
бітрейт: 12,9 Mб/с

Аудіо # 1:
мова: українська
кодек: 2.0
бітрейт: 265 кб/с

Аудіо # 2:
мова: французька
переклад: оригінал
кодек: 5.1
бітрейт: 1509 кб/с

Джерело озвучення:
Arthouse Traffic

Субтитри:
мова: українська
тип: програмні (м'які)
формат: *.srt
Info
Код:
General
Unique ID                                : 152942192776965952873337040130899445133 (0x730F984A3F95F110C49FBF0B7954058D)
Complete name                            : Ma vie de Courgette (2016) 1080p [Ukr_Fre] [Hurtom].
Format                                   :
Format version                           : Version 4
File size                                : 6.73 GiB
Duration                                 : 1 h 5 min
Overall bit rate                         : 14.6 Mb/s
Movie name                               : Життя Кабачка (2016)
Encoded date                             : UTC 2020-06-20 15:01:45
Writing application                      : v30.1.0 ('Forever And More') 64-bit
Writing library                          : libebml v1.3.6 + v1.4.9
Cover                                    : Yes
Attachments                              : cover.jpg

Video
ID                                       : 1
Format                                   : AVC
Format/Info                              : Advanced Video Codec
Format profile                           : [email protected]
Format settings                          : CABAC / 4 Ref Frames
Format settings, CABAC                   : Yes
Format settings, ReFrames                : 4 frames
Codec ID                                 : V_MPEG4/ISO/AVC
Duration                                 : 1 h 5 min
Bit rate                                 : 12.9 Mb/s
Width                                    : 1 920 pixels
Height                                   : 1 080 pixels
Display aspect ratio                     : 16:9
Frame rate mode                          : Constant
Frame rate                               : 23.976 (24000/1001) FPS
Color space                              : YUV
Chroma subsampling                       : 4:2:0
Bit depth                                : 8 bits
Scan type                                : Progressive
Bits/(Pixel*Frame)                       : 0.259
Stream size                              : 5.91 GiB (88%)
Writing library                          : core 148 r2705+45 bdacf7a 7mod [[email protected] X86_64]
Encoding settings                        : cabac=1 / ref=4 / deblock=1:-3:-3 / analyse=0x3:0x113 / me=umh / subme=11 / psy=1 / fade_compensate=0.00 / psy_rd=1.00:0.05 / mixed_ref=1 / me_range=32 / chroma_me=1 / trellis=2 / 8x8dct=1 / cqm=0 / deadzone=21,11 / fast_pskip=0 / chroma_qp_offset=-2 / threads=12 / lookahead_threads=2 / sliced_threads=0 / nr=0 / decimate=1 / interlaced=0 / bluray_compat=0 / constrained_intra=0 / fgo=0 / bframes=8 / b_pyramid=2 / b_adapt=2 / b_bias=0 / direct=3 / weightb=1 / open_gop=0 / weightp=2 / keyint=250 / keyint_min=23 / scenecut=40 / intra_refresh=0 / rc_lookahead=40 / rc=crf / mbtree=0 / crf=15.5000 / qcomp=0.60 / qpmin=0:0:0 / qpmax=69:69:69 / qpstep=4 / vbv_maxrate=50000 / vbv_bufsize=40000 / crf_max=0.0 / nal_hrd=none / filler=0 / ip_ratio=1.40 / pb_ratio=1.30 / aq=4:0.90 / aq-sensitivity=10.00 / aq-factor=1.00:1.00:1.00 / aq2=0 / aq3=0
Language                                 : French
Default                                  : Yes
Forced                                   : No

Audio #1
ID                                       : 2
Format                                   : LC
Format/Info                              : Advanced Audio Codec Low Complexity
Codec ID                                 : A_AAC-2
Duration                                 : 1 h 5 min
Bit rate                                 : 265 kb/s
Channel(s)                               : 2 channels
Channel layout                           : L R
Sampling rate                            : 48.0 kHz
Frame rate                               : 46.875 FPS (1024 SPF)
Compression mode                         : Lossy
Stream size                              : 126 MiB (2%)
Language                                 : Ukrainian
Default                                  : Yes
Forced                                   : Yes

Audio #2
ID                                       : 3
Format                                   :
Format/Info                              : Digital Theater Systems
Codec ID                                 : A_DTS
Duration                                 : 1 h 5 min
Bit rate mode                            : Constant
Bit rate                                 : 1 509 kb/s
Channel(s)                               : 6 channels
Channel layout                           : C L R Ls Rs LFE
Sampling rate                            : 48.0 kHz
Frame rate                               : 93.750 FPS (512 SPF)
Bit depth                                : 24 bits
Compression mode                         : Lossy
Stream size                              : 710 MiB (10%)
Language                                 : French
Default                                  : No
Forced                                   : No

Text
ID                                       : 4
Format                                   : UTF-8
Codec ID                                 : S_TEXT/UTF8
Codec ID/Info                            : UTF-8 Plain Text
Duration                                 : 57 min 19 s
Bit rate                                 : 72 b/s
Count of elements                        : 622
Stream size                              : 30.3 KiB (0%)
Language                                 : Ukrainian
Default                                  : Yes
Forced                                   : No

Menu
00:00:00.000                             : en:00:00:00.000
00:05:51.351                             : en:00:05:51.351
00:10:59.659                             : en:00:10:59.659
00:15:27.927                             : en:00:15:27.927
00:21:54.313                             : en:00:21:54.313
00:28:12.691                             : en:00:28:12.691
00:32:16.935                             : en:00:32:16.935
00:38:43.321                             : en:00:38:43.321
00:44:34.672                             : en:00:44:34.672
00:49:52.990                             : en:00:49:52.990
00:55:34.331                             : en:00:55:34.331
00:59:57.594                             : en:00:59:57.594

Скріншоти





Джерело: і swissfilm.org.ua
подяка пану krigg070 за допомогу у створенні релізу


 Трекер:    Зареєстрований   

Завантажити / скачати мультфільм українською



відео для новачків



 Зареєстрований:   2020-06-20 18:19
 Розмір:   6.73 GB 
 Оцінка мультфільму:   8/10 (Голосів: 5)
   
padalkaandrey 
VIP


З нами з: 04.09.09
Востаннє: 04.03.21
Повідомлень: 301

2020-07-18 00:59  
Планується менший розмір? Дякую.
pintg 
Поважний учасник


З нами з: 14.04.16
Востаннє: 04.03.21
Повідомлень: 198

2020-08-05 20:23  
Мультфільм доволі оригінальний, авжеж є і кращі, але цілком можна подивитися, тимпаче він не дуже тривалий.
Anonymous написано:
Сюжет:
Після смерті матері маленький Ікар потрапляє до притулку, де кожна дитина розповідає йому свою непросту історію. У новому домі хлопчик отримує кумедне прізвисько, знаходить товаришів і дізнається, що таке міцна дружба, турбота і справжня любов.
Я розумію, що сюжет було скопійовано звідкись, але він не відповідає подіям мультфільму:
Кабачком його звала мати, він не отримував цього прізвиська у притулку.
Діти не розповідали йому своїх історії, лише Сімон - він же розповів історію решти.

Що до смерті матері згадується анекдот:
--Ти маму з'їв, татка з'їв -- хто ти після цього?
--Сирота!!! :'-(
Але як це описати не насполерівши, я не знаю.

Пропоную:
Маленький Ікар дуже сумує за батьком, що пішов з родини, а після смерті матері він потрапляє до притулку, де воліє щоб його кликали "Кабачком", бо так його називала мати. У новому домі хлопчик дізнається сумну історію кожної дитини, знаходить товаришів і дізнається, що таке міцна дружба, турбота та справжня любов.

Ваш часовий пояс: GMT + 2 Години

Нова тема   Відповісти