Хлопчик у золотих штанях / Pojken med guldbyxorna (2014) AVC | sub Ukr

Нові коментарі

Нова тема   Відповісти
Автор Повідомлення
Arsenfpu 
Відео Гуртом - фільмокрай
Відео Гуртом - фільмокрай


З нами з: 30.04.09
Востаннє: 05.08.20
Повідомлень: 7115

2020-06-20 18:17  
Хлопчик у золотих штанях / Pojken med guldbyxorna (2014) AVC | sub Ukr

Хлопчик у золотих штанях / Pojken med guldbyxorna (2014) AVC | sub Ukr


Жанр: сімейний, пригоди
Країна: Швеція



Кінокомпанія: Tre Vänner Produktion AB
Режисер: Елла Лемхаген
Актори: укас Хольгерссон, Улле Крантц, Ніна Санн, Шанті Руні, Джиммі Ліндстрьом, Анніка Халлен, Курт Равн, Харальд Хамрелл

Сюжет:
Гостросюжетний пригодницький фільм за мотивами класичного (для Швеції) роману Макса Люндгрена. Коли Матс знаходить штани, з кишень яких можна дістати необмежену кількість грошових банкнот, його життя змінюється. Тепер він може купити собі все, що заманеться, але він і не підозрює, що за цими золотими штанами полюють як поліція, так і злочинці.


Тривалість: 01:38:56
Якість:
Відео:
кодек:
розмір кадру: 1 024 х 432
бітрейт: 2 299 кб/с

Аудіо:
мова: українська
переклад: багатоголосий закадровий Oboz TV
кодек: 2.0
бітрейт: 192 кб/с

Субтитри:
мова: українська
тип: програмні (м'які)
формат: *.srt
Скріншоти














Про файл
General
Unique ID : 14774259758957722888732788731800434859 (0xB1D6B3ED6B8323BB6E9AA77257FB8AB)
Complete name : C:\Pojken med guldbyxorna (2014) AVC [Hurtom].
Format :
Format version : Version 4 / Version 2
File size : 1.77 GiB
Duration : 1 h 38 min
Overall bit rate : 2 557 kb/s
Movie name : Хлопчик у золотих штанях / Pojken med guldbyxorna (2014)
Encoded date : UTC 2020-06-20 14:54:46
Writing application : v21.0.0 ('Tardigrades Will Inherit The Earth') 32-bit
Writing library : libebml v1.3.5 + v1.4.8
Cover : Yes
Attachments : cover.jpg

Video
ID : 1
Format : AVC
Format/Info : Advanced Video Codec
Format profile : [email protected]
Format settings, CABAC : Yes
Format settings, ReFrames : 4 frames
Codec ID : V_MPEG4/ISO/AVC
Duration : 1 h 38 min
Bit rate : 2 299 kb/s
Width : 1 024 pixels
Height : 432 pixels
Display aspect ratio : 2.40:1
Frame rate mode : Constant
Frame rate : 24.000 FPS
Color space : YUV
Chroma subsampling : 4:2:0
Bit depth : 8 bits
Scan type : Progressive
Bits/(Pixel*Frame) : 0.217
Stream size : 1.59 GiB (90%)
Writing library : core 157 r2935 545de2f
Encoding settings : cabac=1 / ref=3 / deblock=1:-1:-1 / analyse=0x3:0x113 / me=hex / subme=7 / psy=1 / psy_rd=1.00:0.15 / mixed_ref=1 / me_range=16 / chroma_me=1 / trellis=1 / 8x8dct=1 / cqm=0 / deadzone=21,11 / fast_pskip=1 / chroma_qp_offset=-3 / threads=12 / lookahead_threads=2 / sliced_threads=0 / nr=0 / decimate=1 / interlaced=0 / bluray_compat=0 / constrained_intra=0 / bframes=3 / b_pyramid=2 / b_adapt=1 / b_bias=0 / direct=1 / weightb=1 / open_gop=0 / weightp=2 / keyint=240 / keyint_min=24 / scenecut=40 / intra_refresh=0 / rc_lookahead=40 / rc=2pass / mbtree=1 / bitrate=2299 / ratetol=1.0 / qcomp=0.60 / qpmin=0 / qpmax=69 / qpstep=4 / cplxblur=20.0 / qblur=0.5 / ip_ratio=1.40 / aq=1:1.00
Default : Yes
Forced : No

Audio
ID : 2
Format : AC-3
Format/Info : Audio Coding 3
Mode extension : CM (complete main)
Format settings, Endianness : Big
Codec ID : A_AC3
Duration : 1 h 38 min
Bit rate mode : Constant
Bit rate : 256 kb/s
Channel(s) : 2 channels
Channel positions : Front: L R
Sampling rate : 48.0 kHz
Frame rate : 31.250 FPS (1536 spf)
Compression mode : Lossy
Stream size : 181 MiB (10%)
Title : Oboz TV
Language : Ukrainian
Default : Yes
Forced : No

Text
ID : 3
Format : UTF-8
Codec ID : S_TEXT/UTF8
Codec ID/Info : UTF-8 Plain Text
Duration : 1 h 33 min
Bit rate : 71 b/s
Count of elements : 682
Stream size : 49.2 KiB (0%)
Language : Ukrainian
Default : Yes
Forced : No
Джерело:
За матеріал для релізу дякую пану sergiyko
Особиста оцінка: не дивився


 Трекер:    Зареєстрований   

Завантажити / скачати фільм українською



відео для новачків



 Зареєстрований:   2020-06-20 18:17
 Розмір:   1.77 GB 
 Оцінка фільму:   9.3/10 (Голосів: 4)
   
midnight_man 
Свій


З нами з: 13.10.09
Востаннє: 05.08.20
Повідомлень: 112

2020-06-20 21:08  
Сюжет прикольний, а от рейтинг щось не дуже. Варто взагалі витрачати на-це час?
-VipeR- 
VIP


З нами з: 17.07.08
Востаннє: 04.08.20
Повідомлень: 296

2020-06-20 22:51  
штани ж напевно...
Ваш часовий пояс: GMT + 2 Години

Нова тема   Відповісти