Батьківство (Батьки) / Dads (2019) 1080p Eng | sub Ukr/Eng

Нові коментарі

Нова тема   Відповісти
Автор Повідомлення
Anonymous 







2020-06-19 14:09  
Батьківство (Батьки)/ Dads (2019) 1080p Eng | sub Ukr/Eng



Жанр: документальний, комедія, сімейний
Країна: США



Кінокомпанія: Imagine Documentaries, Nine Muses Entertainment, Dove Men+Care, Unilever Entertainment
Режисер: Брайс Даллас Говард / Bryce Dallas Howard
Актори: Брайс Даллас Говард / Bryce Dallas Howard, Рон Говард / Ron Howard, Джудд Апатоу / Judd Apatow, Джиммі Феллон / Jimmy Fallon, Вілл Сміт / Will Smith, Енді Гріффіт, Ніл Патрік Гарріс, Кен Жонг, Джиммі Кіммел, Петтон Освальт, Кенан Томпсон та інші

Сюжет:
Розповідь про радощі і виклики батьківства в сучасному світі на прикладі п’яти батьків з різних країн. Їх життя показано через інтерв'ю, домашні зйомки, вірусні ролики, а також історії з особистого досвіду відомих батьків.
Офіційний трейлер:


Рейтинг у США: TV-14 - дітям до 14 років перегляд не бажаний
Вікова категорія, зазначена на Apple TV+: 18+


Тривалість: 01:20:57
Якість: 1080p
Відео:
кодек:
розмір кадру: 1920х1080
бітрейт: 9960 кб/с

Аудіо:
мова: англійська
переклад: оригінал
кодек: 5.1
бітрейт: 448 кб/с

Субтитри # 1:
мова: українська
тип: програмні (м'які)
формат: *.srt
переклад: офіційний, Наталія Наконечна
коригування: igor911*
* субтитри в першоджерелі виявились з ґанджем, тому були відредаговані.

Субтитри # 2-4:
мова: англійська (повні, SDH, forced)
тип: програмні (м'які)
формат: *.srt
Info
Код:
Complete name               : Dads (2019) [Eng sub.Ukr,Eng] 1080p ATVP [Hurtom].
Format                      :
Format version              : Version 4
File size                   : 5.89 GiB
Duration                    : 1 h 20 min
Overall bit rate            : 10.4 Mb/s
Movie name                  : Батьки / Dads (2019) [Eng sub.Ukr,Eng] 1080p [Hurtom]
Encoded date                : UTC 2020-06-21 15:50:35
Writing application         : v47.0.0 ('Black Flag') 64-bit
Writing library             : libebml v1.3.10 + v1.5.2
Cover                       : Yes
Attachments                 : cover.jpg

Video
ID                          : 1
Format                      : AVC
Format/Info                 : Advanced Video Codec
Format profile              : [email protected]
Format settings             : CABAC / 4 Ref Frames
Format settings, CABAC      : Yes
Format settings, Reference  : 4 frames
Codec ID                    : V_MPEG4/ISO/AVC
Duration                    : 1 h 20 min
Bit rate                    : 9 960 kb/s
Width                       : 1 920 pixels
Height                      : 1 080 pixels
Display aspect ratio        : 16:9
Frame rate mode             : Constant
Frame rate                  : 23.976 FPS
Color space                 : YUV
Chroma subsampling          : 4:2:0
Bit depth                   : 8 bits
Scan type                   : Progressive
Bits/(Pixel*Frame)          : 0.200
Stream size                 : 5.63 GiB (96%)
Title                       : Батьки / Dads (2019) 1080p [ATVP, TOMMY]
Language                    : English
Default                     : Yes
Forced                      : No
Color range                 : Limited
Color primaries             : BT.709
Transfer characteristics    : BT.709
Matrix coefficients         : BT.709

Audio
ID                          : 2
Format                      : AC-3
Format/Info                 : Audio Coding 3
Commercial name             : Dolby Digital
Codec ID                    : A_AC3
Duration                    : 1 h 20 min
Bit rate mode               : Constant
Bit rate                    : 448 kb/s
Channel(s)                  : 6 channels
Channel layout              : L R C LFE Ls Rs
Sampling rate               : 48.0 kHz
Frame rate                  : 31.250 FPS (1536 SPF)
Compression mode            : Lossy
Stream size                 : 259 MiB (4%)
Language                    : English
Service kind                : Complete Main
Default                     : Yes
Forced                      : No

Text #1
ID                          : 3
Format                      : UTF-8
Codec ID                    : S_TEXT/UTF8
Codec ID/Info               : UTF-8 Plain Text
Duration                    : 1 h 20 min
Bit rate                    : 140 b/s
Count of elements           : 1432
Stream size                 : 82.8 KiB (0%)
Title                       : Ukr Full [Apple TV+], edit by igor911
Language                    : Ukrainian
Default                     : Yes
Forced                      : Yes

Text #2
ID                          : 4
Format                      : UTF-8
Codec ID                    : S_TEXT/UTF8
Codec ID/Info               : UTF-8 Plain Text
Duration                    : 1 h 20 min
Bit rate                    : 91 b/s
Count of elements           : 1397
Stream size                 : 53.7 KiB (0%)
Title                       : Eng Full
Language                    : English
Default                     : No
Forced                      : No

Text #3
ID                          : 5
Format                      : UTF-8
Codec ID                    : S_TEXT/UTF8
Codec ID/Info               : UTF-8 Plain Text
Duration                    : 1 h 20 min
Bit rate                    : 101 b/s
Count of elements           : 1551
Stream size                 : 59.8 KiB (0%)
Title                       : Eng SDH
Language                    : English
Default                     : No
Forced                      : No

Text #4
ID                          : 6
Format                      : UTF-8
Codec ID                    : S_TEXT/UTF8
Codec ID/Info               : UTF-8 Plain Text
Duration                    : 1 h 0 min
Bit rate                    : 9 b/s
Count of elements           : 129
Stream size                 : 4.14 KiB (0%)
Title                       : Eng Forced
Language                    : English
Default                     : No
Forced                      : No


Джерело: &


 Трекер:    Зареєстрований   

Завантажити / скачати фільм українською



відео для новачків



 Зареєстрований:   2020-06-21 17:54
 Розмір:   5.89 GB 
 Оцінка фільму:   9/10 (Голосів: 1)
 ЗАЛИШАЙТЕСЬ ЯКОМОГА ДОВШЕ НА РОЗДАЧІ! ЗАВАНТАЖИВ САМ - ДАЙ ЗАВАНТАЖИТИ ІНШИМ!
   
Інші релізи
   Батьківство / Dads (2019) AVC Eng | sub Ukr/Multi ssTAss  0 / 0   791 MB   2020-06-21 20:52 
+380954897458 
VIP


З нами з: 02.06.17
Востаннє: 29.10.20
Повідомлень: 971

2020-06-19 14:43  
Чому її повного імені не зазначили?
bot 
робот


З нами з: 30.09.07
Востаннє: 26.05.05
Повідомлень: 26373

2020-06-21 17:54  
Тему перенесено з Анонси релізів до форуму Фільми


igor911

Ваш часовий пояс: GMT + 2 Години

Нова тема   Відповісти