Останній з могікан [Театральна версія] / The Last of the Mohicans [Theatrical Cut] (1992) AVC Ukr/Eng | Sub Eng

Нові коментарі

Нова тема   Відповісти
Автор Повідомлення
Arsenfpu 
Відео Гуртом - фільмокрай
Відео Гуртом - фільмокрай


З нами з: 30.04.09
Востаннє: 06.07.20
Повідомлень: 7042

2020-06-18 21:59  
Останній з могікан [Театральна версія] / The Last of the Mohicans [Theatrical Cut] (1992) AVC Ukr/Eng | Sub Eng

Останній з могікан [Театральна версія] / The Last of the Mohicans [Theatrical Cut] (1992) AVC Ukr/Eng | Sub Eng


Жанр: історичний, пригодницький
Країна: США



Кінокомпанія: Morgan Creek Productions
Режисер: Майкл Манн
Актори: Деніел Дей-Льюїс, Меделін Стоу, Рассел Мінс, Ерік Швейґ, Джоді Мей, Стівен Веддінґтон, Вес Студі та інші

Сюжет:
1757 рік. Англо-французька війна за американські колонії в самому розпалі. Дочки полковника Монро намагаються пробратися в обложений французами англійський форт. Їм на допомогу приходить молодий білий мисливець Соколине Око. Між Соколиним Оком, що виріс серед індіанців племені могікан, і старшою дочкою, витонченою Корою, спалахує взаємне почуття. Але Кора і її сестра попадають у полон до союзників французів - Гуронів, і від болісної смерті їх можуть врятувати тільки Соколине Око і його вірні друзі.
Фільм знято на основі однойменної художньої книги Джеймса Фенімора Купера та екранізації з 1936 року.


Тривалість: 01:47:17
Якість:
Відео:
кодек:
розмір кадру: 1 024 х 432
бітрейт: 2 500 кб/с

Аудіо # 1:
мова: українська
переклад: багатоголосий закадровий
кодек: 2.0
бітрейт: 192 кб/с

Аудіо # 2:
мова: англійська
переклад: оригінал
кодек: 2.0
бітрейт: 192 кб/с

Субтитри:
мова: англійська
тип: програмні (м'які)
формат: *.srt
Скріншоти














Про файл
General
Unique ID : 68450733368703067733484477195964872614 (0x337F21B7CFFBC66F104F6848CB7777A6)
Complete name : C:\The Last of the Mohicans (1992) [Ukr,Eng] AVC [Hurtom].
Format :
Format version : Version 4 / Version 2
File size : 2.16 GiB
Duration : 1 h 47 min
Overall bit rate : 2 885 kb/s
Movie name : Останній з могікан / The Last of the Mohicans (1992)
Encoded date : UTC 2020-06-18 18:28:20
Writing application : v21.0.0 ('Tardigrades Will Inherit The Earth') 32-bit
Writing library : libebml v1.3.5 + v1.4.8
Cover : Yes
Attachments : cover.jpg

Video
ID : 1
Format : AVC
Format/Info : Advanced Video Codec
Format profile : [email protected]
Format settings, CABAC : Yes
Format settings, ReFrames : 4 frames
Codec ID : V_MPEG4/ISO/AVC
Duration : 1 h 47 min
Bit rate : 2 500 kb/s
Width : 1 024 pixels
Height : 432 pixels
Display aspect ratio : 2.40:1
Frame rate mode : Constant
Frame rate : 25.000 FPS
Color space : YUV
Chroma subsampling : 4:2:0
Bit depth : 8 bits
Scan type : Progressive
Bits/(Pixel*Frame) : 0.226
Stream size : 1.87 GiB (87%)
Writing library : core 157 r2935 545de2f
Encoding settings : cabac=1 / ref=3 / deblock=1:-1:-1 / analyse=0x3:0x113 / me=hex / subme=7 / psy=1 / psy_rd=1.00:0.15 / mixed_ref=1 / me_range=16 / chroma_me=1 / trellis=1 / 8x8dct=1 / cqm=0 / deadzone=21,11 / fast_pskip=1 / chroma_qp_offset=-3 / threads=12 / lookahead_threads=2 / sliced_threads=0 / nr=0 / decimate=1 / interlaced=0 / bluray_compat=0 / constrained_intra=0 / bframes=3 / b_pyramid=2 / b_adapt=1 / b_bias=0 / direct=1 / weightb=1 / open_gop=0 / weightp=2 / keyint=250 / keyint_min=25 / scenecut=40 / intra_refresh=0 / rc_lookahead=40 / rc=2pass / mbtree=1 / bitrate=2500 / ratetol=1.0 / qcomp=0.60 / qpmin=0 / qpmax=69 / qpstep=4 / cplxblur=20.0 / qblur=0.5 / ip_ratio=1.40 / aq=1:1.00
Default : Yes
Forced : No

Audio #1
ID : 2
Format : AC-3
Format/Info : Audio Coding 3
Mode extension : CM (complete main)
Format settings, Endianness : Big
Codec ID : A_AC3
Duration : 1 h 47 min
Bit rate mode : Constant
Bit rate : 192 kb/s
Channel(s) : 2 channels
Channel positions : Front: L R
Sampling rate : 48.0 kHz
Frame rate : 31.250 FPS (1536 spf)
Compression mode : Lossy
Stream size : 147 MiB (7%)
Title : amc
Language : Ukrainian
Default : Yes
Forced : Yes

Audio #2
ID : 3
Format : AC-3
Format/Info : Audio Coding 3
Mode extension : CM (complete main)
Format settings, Endianness : Big
Codec ID : A_AC3
Duration : 1 h 47 min
Bit rate mode : Constant
Bit rate : 192 kb/s
Channel(s) : 2 channels
Channel positions : Front: L R
Sampling rate : 48.0 kHz
Frame rate : 31.250 FPS (1536 spf)
Compression mode : Lossy
Stream size : 147 MiB (7%)
Language : English
Default : No
Forced : No

Text
ID : 4
Format : UTF-8
Codec ID : S_TEXT/UTF8
Codec ID/Info : UTF-8 Plain Text
Duration : 1 h 36 min
Bit rate : 36 b/s
Count of elements : 661
Stream size : 25.6 KiB (0%)
Language : English
Default : Yes
Forced : No
Джерело:
Особиста оцінка: не дивився


Срібний реліз (на рейтинг впливає 50% завантаженого)
 Трекер:    Зареєстрований   

Завантажити / скачати фільм українською



відео для новачків



 Зареєстрований:   2020-06-18 21:59
 Розмір:   2.16 GB 
 Оцінка фільму:   9.5/10 (Голосів: 8)
   
Інші релізи
   Останній з могікан [Режисерська версія] / The Last of the Mohicans [Director's Definitive Cut] (1992) 1080p H.265 Ukr/Eng | Sub Eng -Star-Lord-  2 / 0   12.4 GB   2020-04-28 01:48 
   Останній з могікан [Режисерська версія] / The Last of the Mohicans [Director's Definitive Cut] (1992) AVC Ukr/Eng | sub Eng staf777  5 / 0   2.36 GB   2019-09-04 13:15 
   Останній з могікан [Театральна версія] / The Last of the Mohicans [Theatrical Cut] (1992) HDTV 1080i Ukr/Eng | Sub Eng kryk-v.ya.  2 / 0   5.2 GB   2019-09-04 10:31 
   Останній з могікан [Режисерська версія] / The Last of the Mohicans [Director's Definitive Cut] (1992) 1080p Ukr/Eng | Sub Eng ratbol  2 / 0   12.05 GB   2013-03-07 00:36 
   Останній з могікан [Режисерська версія] / The Last of the Mohicans [Director's Definitive Cut] (1992) Remux 1080p Ukr/Eng | sub Eng SkiF  2 / 0   35.2 GB   2013-03-01 21:45 
   Останній з могікан [Режисерська версія] / The Last of the Mohicans [Director's Definitive Cut] (1992) 720p Ukr/Eng | sub Eng Цікава ідея  5 / 0   4.37 GB   2013-02-26 12:34 
   Останній з могікан [Режисерська версія] / The Last of the Mohicans [Director's Definitive Cut] (1992) Цікава ідея  4 / 0   1.6 GB   2013-02-26 12:29 
Ваш часовий пояс: GMT + 2 Години

Нова тема   Відповісти