Геркулес: Легендарні Подорожі (Сезони 1-3) / Легендарні пригоди Геркулеса / Hercules: The Legendary Journeys (Seasons 1-3) (1994-1998) -AVC 3xUkr/Eng

Нові коментарі

Нова тема   Відповісти
Автор Повідомлення
Anonymous 







2020-06-17 23:08  
Геркулес: Легендарні Подорожі (Сезони 1-3) / Легендарні пригоди Геркулеса / Hercules: The Legendary Journeys (Seasons 1-3) (1994-1998) -AVC 3xUkr/Eng

Геркулес: Легендарні Подорожі (Сезони 1-3) / Легендарні пригоди Геркулеса / Hercules: The Legendary Journeys (Seasons 1-3) (1994-1998) -AVC 3xUkr/Eng


Жанр: екшн, пригодницький, драма
Країна: США


Кінокомпанія / телеканал: MCA Television, Pacific Renaissance Pictures Ltd., Renaissance Pictures
Режисер: Чарлі Хаскелл, Брюс Кембелл, Майкл Херст
Актори/ролі озвучують: Кевін Сорбо, Майкл Херст, Хадсон Лік, Кевін Сміт, Брюс Кемпбелл, Люсі Лоулесс, Рене О`Коннор

Сюжет:
Ти чув коли-небудь про дванадцять подвигів Геркулеса? Насправді їх було 103 .... і всі вони записані на плівку!


Тривалість: 1 серія: 42:00 (цілком серій: 64 з 64 )
Перелік серій
Пілотні серії:

1 - Геркулес і амазонки / Hercules and the Amazon Women
2 - Геркулес і загублене королівство / Hercules and the Lost Kingdom
3 - Геркулес і вогняне коло / Hercules and the Circle of Fire
4 - Геркулес у царстві мертвих / Hercules in the Underworld
5 - Геркулес в лабіринті Мінотавра / Hercules in the Maze of the Minotaur

Перший сезон:

1. The Wrong Path — Неправильний шлях
2. Eye of the Beholder — Око Бехолдеру
3. The Road to Calydon - Дорога до Каледону
4. The Festival of Dionysus — Свято Діоніса
5. Ares — Арес
6. As Darkness Falls — Коли наступить темрява
7. Pride Comes Before a Brawl — Гордість як причина усіх чвар
8. The March to Freedom — Шлях до волі
9. The Warrior Princess — Принцеса-воїн
10. Gladiator — Гладіатор
11. The Vanishing Dead — Зникаючі мерці
12. The Gauntlet — Двобій
13. Unchained Heart — Вільне серце

Другий сезон:

1. The King of Thieves
2. All That Glitters
3. What's in a Name?
4. Siege at Naxos
5. Outcast
6. Under the Broken Sky
7. The Mother of All Monsters
8. The Other Side
9. The Fire Down Below
10 Cast a Giant Shadow
11.Highway to Hades
12.The Sword of Veracity
13.The Enforcer
14.Once a Hero
15.Heedless Hearts
16.Let the Games Begin
17.The Apple
18.Promises
19.King for a Day
20.Protean Challenge
21.The Wedding of Alcmene
22.The Power
23.Centaur Mentor Journey
24.Cave of Echoes

Третій сезон:

1. Mercenary
2. Doomsday
3. Love Takes a Holiday
4. Mummy Dearest
5. Not Fade Away
6. Monster Child in the Promised Land
7. The Green-Eyed Monster
8. Prince Hercules
9. A Star to Guide them
10. The Lady and the Dragon
11 Long Live the King
12. Surprise
13. Encounter
14. When a Man Loves a Woman
15. Judgement Day
16. The Lost City
17. Les Contemptibles
18. Reign of Terror
19. The End of the Beginning
20. War Bride
21. A Rock and a Hard Place
22. Atlantis
Якість:
Відео:
кодек:
розмір кадру: 688 х 472
бітрейт: 2800 кб/с
примітка: Увага! Ріпи мають 10 - бітну глибину кольору, перед переглядом встановіть усі потрібні кодеки і перевірте чи ваш пристрій її підтримує.

Аудіо # 1:
мова: українська
переклад: багатоголосий закадровий | K1
кодек: 2.0
бітрейт: 192 кб/с
примітка: всі серії, крім пілотних

Аудіо # 2:
мова: українська
переклад: багатоголосий закадровий | TTP
кодек: 2.0
бітрейт: 192 кб/с
примітка: пілотні серії + всі, крім 9ї у 1 сезону

Аудіо # 3:
мова: українська
переклад: багатоголосий закадровий | 1+1
кодек: 2.0
бітрейт: 192 кб/с
примітка: серії 11-14, 16-22 у 3 сезоні

Аудіо # 4:
мова: англійська
переклад: оригінал
кодек: 5.1
бітрейт: 448 кб/с
Скріншоти










МІ
Format :
Format version : Version 4
File size : 2.22 GiB
Duration : 1 h 30 min
Overall bit rate : 3 508 kb/s
Encoded date : UTC 2020-05-16 11:46:26
Writing application : v44.0.0 ('Domino') 64-bit
Writing library : libebml v1.3.10 + v1.5.2

Video
ID : 1
Format : AVC
Format/Info : Advanced Video Codec
Format profile : High [email protected]
Format settings : CABAC / 5 Ref Frames
Format settings, CABAC : Yes
Format settings, Reference : 5 frames
Codec ID : V_MPEG4/ISO/AVC
Duration : 1 h 30 min
Bit rate : 2 866 kb/s
Width : 688 pixels
Height : 472 pixels
Display aspect ratio : 4:3
Original display aspect rat : 4:3
Frame rate mode : Constant
Frame rate : 23.976 (24000/1001) FPS
Color space : YUV
Chroma subsampling : 4:2:0
Bit depth : 10 bits
Scan type : Progressive
Bits/(Pixel*Frame) : 0.368
Stream size : 1.82 GiB (82%)
Writing library : core 148 r2744 b97ae06
Encoding settings : cabac=1 / ref=5 / deblock=1:-1:-1 / analyse=0x3:0x133 / me=umh / subme=10 / psy=1 / psy_rd=1.00:0.15 / mixed_ref=1 / me_range=32 / chroma_me=1 / trellis=2 / 8x8dct=1 / cqm=0 / deadzone=21,11 / fast_pskip=1 / chroma_qp_offset=-3 / threads=15 / lookahead_threads=2 / sliced_threads=0 / nr=0 / decimate=1 / interlaced=0 / bluray_compat=0 / constrained_intra=0 / bframes=8 / b_pyramid=2 / b_adapt=2 / b_bias=0 / direct=3 / weightb=1 / open_gop=0 / weightp=2 / keyint=240 / keyint_min=23 / scenecut=40 / intra_refresh=0 / rc_lookahead=60 / rc=crf / mbtree=1 / crf=16.0 / qcomp=0.60 / qpmin=10 / qpmax=51 / qpstep=4 / ip_ratio=1.40 / aq=1:1.00
Language : English
Default : Yes
Forced : No

Audio #1
ID : 2
Format : AC-3
Format/Info : Audio Coding 3
Commercial name : Dolby Digital
Codec ID : A_AC3
Duration : 1 h 30 min
Bit rate mode : Constant
Bit rate : 192 kb/s
Channel(s) : 2 channels
Channel layout : L R
Sampling rate : 48.0 kHz
Frame rate : 31.250 FPS (1536 SPF)
Compression mode : Lossy
Stream size : 125 MiB (5%)
Title : MVO - ТТП
Language : Ukrainian
Service kind : Complete Main
Default : Yes
Forced : No

Audio #2
ID : 3
Format : AC-3
Format/Info : Audio Coding 3
Commercial name : Dolby Digital
Codec ID : A_AC3
Duration : 1 h 30 min
Bit rate mode : Constant
Bit rate : 448 kb/s
Channel(s) : 6 channels
Channel layout : L R C LFE Ls Rs
Sampling rate : 48.0 kHz
Frame rate : 31.250 FPS (1536 SPF)
Compression mode : Lossy
Stream size : 291 MiB (13%)
Language : English
Service kind : Complete Main
Default : No
Forced : No
Подяка: пану Dvd-master за готові доріжки для релізу
Джерело:
Особиста оцінка: 0 - не дивився


Золотий реліз (завантажене не впливає на рейтинг)
 Трекер:    Зареєстрований   

Завантажити / скачати серіал українською



відео для новачків



 Зареєстрований:   2020-06-18 00:14
 Розмір:   83.06 GB 
 Оцінка серіалу:   9.8/10 (Голосів: 12)
   
Ecta1ion 
Новенький


З нами з: 30.04.19
Востаннє: 02.08.20
Повідомлень: 1

2020-08-02 12:55  
А будуть ще три останні сезони?
Dvd-master 
Відео Гуртом - запис з ТБ
Відео Гуртом - запис з ТБ


З нами з: 13.11.10
Востаннє: 15.09.20
Повідомлень: 267

2020-08-03 19:17  
Нарешті якісний реліз, дякую.
Anonymous 







2020-08-03 19:36  
Ecta1ion написано:
А будуть ще три останні сезони?

будуть, але я не знаю коли. зараз просто не вистачає часу(

Koful 
VIP


З нами з: 05.12.16
Востаннє: 19.09.20
Повідомлень: 302

2020-08-17 10:15  
Чудово! Дякую, згадаю дитинство Happy
Ваш часовий пояс: GMT + 2 Години

Нова тема   Відповісти