Голлівуд (Сезон 1) / Hollywood (Season 1) (2020) Ukr/Eng

Нові коментарі

Нова тема   Відповісти
Автор Повідомлення
Цікава ідея 
VIP


З нами з: 26.12.11
Востаннє: 21.09.20
Повідомлень: 664

2020-06-17 10:36  
| AVC | 1080p

Голлівуд (Сезон 1) / Hollywood (Season 1) (2020) Ukr/Eng


Голлівуд (Сезон 1) / Hollywood (Season 1) (2020) Ukr/Eng


Якщо вам сподобалося озвучення серіалу,
то ви можете підтримати нас за посиланням
ТИЦЬ


Жанр: драма
Країна: США



Кінокомпанія / телеканал: Netflix
Режисери: Ян Бренан, Райан Мерфі
Актори: Даррен Крісс, Девід Коренсвет, Джеремі Поуп, Лора Херріер, Самара Вівінг та інші.

Сюжет:
Серіал від творця «Американської історії жаху» Райана Мерфі про групу акторів і кінематографістів, які намагаються досягти успіху в Голлівуді 40-х років XX століття.


Перекладено та озвучено ТО "Цікава Ідея" за підтримки сайту UASERIALS.PRO


Український трейлер в нашому озвученні.



Тривалість: 1 серія: ~ 55 хв. (цілком серій: 7)
Перелік серій:

01. Hooray for Hollywood
02. Hooray for Hollywood: Part 2
03. Outlaws
04. (Screen) Tests
05. Jump
06. Meg
07. A Hollywood Ending
Якість:
Відео:
кодек:
розмір кадру: 704 x 320
бітрейт: 1 200 кб/с

Аудіо # 1:
мова: українська | "Цікава Ідея"
переклад: професійний багатоголосий закадровий
кодек: 5.1
бітрейт: 448 кб/с

Аудіо # 2:
мова: англійська
переклад: оригінал
кодек: 5.1
бітрейт: 448 кб/с
Info
Код:
Format                      : AVI
Format/Info                 : Audio Video Interleave
File size                   : 691 MiB
Duration                    : 44 min 40 s
Overall bit rate            : 2 162 kb/s
Movie name                  : Голлівуд / Hollywood - S01E01 (2020) 1080p [Ukr.Eng] [Цікава Ідея]
Writing application         : Lavf58.20.100

Video
ID                          : 0
Format                      : MPEG-4 Visual
Format profile              : Advanced [email protected]
Format settings             : BVOP1
Format settings, BVOP       : 1
Format settings, QPel       : No
Format settings, GMC        : No warppoints
Format settings, Matrix     : Default (H.263)
Codec ID                    :
Codec ID/Hint               :
Duration                    : 44 min 40 s
Bit rate                    : 1 249 kb/s
Width                       : 704 pixels
Height                      : 320 pixels
Display aspect ratio        : 2.2:1
Frame rate                  : 23.976 (24000/1001) FPS
Color space                 : YUV
Chroma subsampling          : 4:2:0
Bit depth                   : 8 bits
Scan type                   : Progressive
Compression mode            : Lossy
Bits/(Pixel*Frame)          : 0.231
Stream size                 : 399 MiB (58%)
Writing library             : 67

Audio #1
ID                          : 1
Format                      : AC-3
Format/Info                 : Audio Coding 3
Commercial name             : Dolby Digital
Codec ID                    : 2000
Duration                    : 44 min 40 s
Bit rate mode               : Constant
Bit rate                    : 448 kb/s
Channel(s)                  : 6 channels
Channel layout              : L R C LFE Ls Rs
Sampling rate               : 48.0 kHz
Frame rate                  : 31.250 FPS (1536 SPF)
Bit depth                   : 16 bits
Compression mode            : Lossy
Stream size                 : 143 MiB (21%)
Alignment                   : Aligned on interleaves
Interleave, duration        : 32  ms (0.77 video frame)
Title                       : Українська
Service kind                : Complete Main

Audio #2
ID                          : 2
Format                      : AC-3
Format/Info                 : Audio Coding 3
Commercial name             : Dolby Digital
Codec ID                    : 2000
Duration                    : 44 min 40 s
Bit rate mode               : Constant
Bit rate                    : 448 kb/s
Channel(s)                  : 6 channels
Channel layout              : L R C LFE Ls Rs
Sampling rate               : 48.0 kHz
Frame rate                  : 31.250 FPS (1536 SPF)
Bit depth                   : 16 bits
Compression mode            : Lossy
Stream size                 : 143 MiB (21%)
Alignment                   : Aligned on interleaves
Interleave, duration        : 32  ms (0.77 video frame)
Title                       : English
Service kind                : Complete Main
Скріншоти



Озвучено творчим об'єднанням:
Ролі озвучили: Семен Птаха, Юлія Малахова, Олексій Сафін, Ганна Квочкіна, Андрій Корзаченко та Матвій Ніколаєв
Подяка за ріпи в avi: antik_2008


Авторський реліз (завантажувати можна без реєстрації)
 Трекер:    Зареєстрований   

Завантажити / скачати серіал українською



відео для новачків



 Зареєстрований:   2020-06-17 10:36
 Розмір:   4.76 GB 
 Оцінка серіалу:   8.1/10 (Голосів: 9)
   
Цікава ідея 
VIP


З нами з: 26.12.11
Востаннє: 21.09.20
Повідомлень: 664

2020-06-17 10:38  
Друзі, ми переклали та озвучили 7 серій. Фінал!

Бажаємо приємного перегляду!

chokur 
Новенький


З нами з: 03.07.17
Востаннє: 20.09.20
Повідомлень: 4

2020-08-21 12:39  
Сюжет звичайно цікавий. Але загалом маячня повна. Фантастика - ось жанр правильний. Більш цікаво дивитися на загальний фон життя Америки в кінці 40-х років ХХ ст.
Ваш часовий пояс: GMT + 2 Години

Нова тема   Відповісти