Уперед / Onward (2020) 1080p H.265 Ukr/Eng | Sub Eng

Нові коментарі

Нова тема   Відповісти
Автор Повідомлення
Anonymous 







2020-06-16 22:48  
Уперед / Onward (2020) 1080p H.265 Ukr/Eng | Sub Eng

Уперед / Onward (2020) 1080p H.265 Ukr/Eng | Sub Eng


Жанр: комедія, мультфільм, пригоди, сімейний, фентезі
Країна: США
Кінокомпанія: Walt Disney Pictures, Pixar Animation Studios
Режисер: Ден Скенлон
Ролі озвучують: Том Голланд, Кріс Претт, Джулія Луіс-Дрейфус, Октавія Спенсер, Мел Родрігез, Кайл Борнхаймер, Алі Вонг, Грей ДеЛісл, Трейсі Уллмен

Сюжет:
Історія двох братів-ельфів, які живуть в сучасному світі пліч-о-пліч з іншими магічними істотами. В їхньому світі майже не залишилося магії, тому коли брати отримують шанс на один день оживити свого батька, вони відправляються в захоплюючий квест, де їм доведеться пройти безліч випробувань.

Тривалість: 01:42:21
Якість:

Відео:
кодек: H.265 (HEVC)
розмір кадру: 1920 x 804
бітрейт: 6 795 кб/с
бітова глибина: 10 біт

Увага! Перед завантаженням переконайтесь, що ваш пристрій відтворення (та/або ПЗ) підтримує H.265 (HEVC)

Аудіо # 1:
мова: українська
переклад: професійний дубльований
кодек: AC-3 5.1
бітрейт: 384 кб/с

Аудіо # 2:
мова: англійська
переклад: оригінал
кодек: 5.1
бітрейт: 1510 кб/с

Субтитри # 1: (Full)
мова: англійська
тип: програмні (м'які)
формат: *.srt


Info
Код:
General
Unique ID                                : 137921414867844791687343548180961327738 (0x67C2B2C2E9841D00761616D3332A7A7A)
Complete name                            : Onward (2020) 1080p H.265 [UKR_ENG] [Hurtom].
Format                                   :
Format version                           : Version 4
File size                                : 6.21 GiB
Duration                                 : 1 h 42 min
Overall bit rate                         : 8 683 kb/s
Movie name                               : Уперед / Onward (2020)
Encoded date                             : UTC 2020-06-16 19:36:02
Writing application                      : v20.0.0 ('I Am The Sun') 64-bit
Writing library                          : libebml v1.3.5 + v1.4.8
Cover                                    : Yes
Attachments                              : cover.jpg

Video
ID                                       : 1
Format                                   : HEVC
Format/Info                              : High Efficiency Video Coding
Format profile                           : Main [email protected]@High
Codec ID                                 : V_MPEGH/ISO/HEVC
Duration                                 : 1 h 42 min
Bit rate                                 : 6 795 kb/s
Width                                    : 1 920 pixels
Height                                   : 804 pixels
Display aspect ratio                     : 2.40:1
Frame rate mode                          : Constant
Frame rate                               : 23.976 (23976/1000) FPS
Original frame rate                      : 23.976 (24000/1001) FPS
Color space                              : YUV
Chroma subsampling                       : 4:2:0
Bit depth                                : 10 bits
Bits/(Pixel*Frame)                       : 0.184
Stream size                              : 4.86 GiB (78%)
Title                                    : Уперед / Onward (2020)
Writing library                          : x265 3.3+1-g554c887ac:[Windows][MSVC 1924][64 bit] 10bit
Encoding settings                        : cpuid=1111039 / frame-threads=3 / numa-pools=12 / wpp / no-pmode / no-pme / no-psnr / no-ssim / log-level=2 / input-csp=1 / input-res=1920x804 / interlace=0 / total-frames=133484 / level-idc=41 / high-tier=1 / uhd-bd=0 / ref=5 / no-allow-non-conformance / no-repeat-headers / annexb / no-aud / no-hrd / info / hash=0 / no-temporal-layers / open-gop / min-keyint=23 / keyint=240 / gop-lookahead=0 / bframes=10 / b-adapt=2 / b-pyramid / bframe-bias=0 / rc-lookahead=60 / lookahead-slices=4 / scenecut=40 / hist-scenecut=0 / radl=0 / no-splice / no-intra-refresh / ctu=32 / min-cu-size=8 / rect / amp / max-tu-size=32 / tu-inter-depth=4 / tu-intra-depth=4 / limit-tu=1 / rdoq-level=2 / dynamic-rd=0.00 / no-ssim-rd / signhide / no-tskip / nr-intra=0 / nr-inter=0 / no-constrained-intra / no-strong-intra-smoothing / max-merge=4 / limit-refs=2 / limit-modes / me=3 / subme=7 / merange=57 / temporal-mvp / no-frame-dup / no-hme / weightp / weightb / no-analyze-src-pics / deblock=-3:-3 / no-sao / no-sao-non-deblock / rd=6 / selective-sao=0 / no-early-skip / no-rskip / no-fast-intra / no-tskip-fast / no-cu-lossless / no-b-intra / no-splitrd-skip / rdpenalty=0 / psy-rd=2.00 / psy-rdoq=1.00 / no-rd-refine / no-lossless / cbqpoffs=0 / crqpoffs=0 / rc=crf / crf=19.0 / qcomp=0.60 / qpstep=4 / stats-write=0 / stats-read=0 / vbv-maxrate=50000 / vbv-bufsize=50000 / vbv-init=0.9 / crf-max=0.0 / crf-min=0.0 / ipratio=1.40 / pbratio=1.30 / aq-mode=1 / aq-strength=1.00 / no-cutree / zone-count=0 / no-strict-cbr / qg-size=32 / no-rc-grain / qpmax=69 / qpmin=0 / no-const-vbv / sar=1 / overscan=0 / videoformat=5 / range=0 / colorprim=1 / transfer=1 / colormatrix=1 / chromaloc=0 / display-window=0 / cll=0,0 / min-luma=0 / max-luma=1023 / log2-max-poc-lsb=8 / vui-timing-info / vui-hrd-info / slices=1 / no-opt-qp-pps / no-opt-ref-list-length-pps / no-multi-pass-opt-rps / scenecut-bias=0.05 / hist-threshold=0.01 / no-opt-cu-delta-qp / no-aq-motion / no-hdr10 / no-hdr10-opt / no-dhdr10-opt / no-idr-recovery-sei / analysis-reuse-level=0 / analysis-save-reuse-level=0 / analysis-load-reuse-level=0 / scale-factor=0 / refine-intra=0 / refine-inter=0 / refine-mv=1 / refine-ctu-distortion=0 / no-limit-sao / ctu-info=0 / no-lowpass-dct / refine-analysis-type=0 / copy-pic=1 / max-ausize-factor=1.0 / no-dynamic-refine / no-single-sei / no-hevc-aq / no-svt / no-field / qp-adaptation-range=1.00 / no-scenecut-aware-qpconformance-window-offsets / right=0 / bottom=0
Default                                  : Yes
Forced                                   : No
Color range                              : Limited
Color primaries                          : BT.709
Transfer characteristics                 : BT.709
Matrix coefficients                      : BT.709

Audio #1
ID                                       : 2
Format                                   : AC-3
Format/Info                              : Audio Coding 3
Commercial name                          : Dolby Digital
Codec ID                                 : A_AC3
Duration                                 : 1 h 42 min
Bit rate mode                            : Constant
Bit rate                                 : 384 kb/s
Channel(s)                               : 6 channels
Channel layout                           : L R C LFE Ls Rs
Sampling rate                            : 48.0 kHz
Frame rate                               : 31.250 FPS (1536 SPF)
Compression mode                         : Lossy
Stream size                              : 281 MiB (4%)
Title                                    : / 5.1 Ch / 384 kbps / ПД / iTunes
Language                                 : Ukrainian
Service kind                             : Complete Main
Default                                  : Yes
Forced                                   : Yes

Audio #2
ID                                       : 3
Format                                   :
Format/Info                              : Digital Theater Systems
Codec ID                                 : A_DTS
Duration                                 : 1 h 42 min
Bit rate mode                            : Constant
Bit rate                                 : 1 509 kb/s
Channel(s)                               : 6 channels
Channel layout                           : C L R Ls Rs LFE
Sampling rate                            : 48.0 kHz
Frame rate                               : 93.750 FPS (512 SPF)
Bit depth                                : 16 bits
Compression mode                         : Lossy
Stream size                              : 1.08 GiB (17%)
Title                                    : / 5.1 Ch / 1509 kbps / Original
Language                                 : English
Default                                  : No
Forced                                   : No

Text
ID                                       : 4
Format                                   : UTF-8
Codec ID                                 : S_TEXT/UTF8
Codec ID/Info                            : UTF-8 Plain Text
Duration                                 : 1 h 35 min
Bit rate                                 : 75 b/s
Count of elements                        : 1904
Stream size                              : 53.0 KiB (0%)
Title                                    : Full
Language                                 : English
Default                                  : No
Forced                                   : No

Menu
00:00:00.686                             : en:Studio Logo
00:00:49.686                             : en:Long ago
00:03:04.686                             : en:Title Sequence
00:03:09.686                             : en:Ian's morning
00:05:03.686                             : en:Officer Bronco comes to Ligjtfoots
00:07:03.686                             : en:Ian meet Dad's friend
00:08:14.686                             : en:Making a list
00:09:34.686                             : en:Ian starts his day
00:12:44.686                             : en:Ian misses his Dad
00:14:53.686                             : en:A gift from Dad
00:19:17.686                             : en:Ian is at his room
00:20:38.686                             : en:Barley comes up with something
00:23:46.686                             : en:Barley drives his car
00:25:34.686                             : en:Learning magic
00:27:25.686                             : en:The boys look for the Manticore
00:31:21.686                             : en:The Manticore comes back
00:32:49.686                             : en:Laurel worries about the boys
00:36:33.686                             : en:Guinevere gets a trouble
00:39:34.686                             : en:Ian tries magic again
00:42:48.686                             : en:The Manticore talks to Laurel
00:44:00.686                             : en:Ian drives Guinevere
00:47:48.686                             : en:The spell wears off
00:51:43.686                             : en:Barley argues with Ian
00:54:59.686                             : en:Grecklin of the Pawn shop
00:56:07.686                             : en:Bronco calls Laurel
00:57:24.686                             : en:Raven's Point
01:03:06.686                             : en:Bronco chases the boys
01:07:05.686                             : en:The boys follow the birds
01:08:49.686                             : en:Ian likes the spell
01:10:06.686                             : en:Laurel encounters Pixie Dusters
01:11:12.686                             : en:Barley talks about Dad
01:13:30.686                             : en:The boys are in dangerous
01:15:58.686                             : en:Back where they started
01:17:59.686                             : en:Barley cannot give it up
01:20:26.686                             : en:It's curse
01:22:44.686                             : en:I am a mighty warrior
01:24:26.686                             : en:Ian's decision
01:26:59.686                             : en:What Ian see
01:30:07.686                             : en:Ian back to his school
01:32:53.686                             : en:End Credits
Світлини




Джерело: &
Особиста оцінка: 0 - не дивився


 Трекер:    Зареєстрований   

Завантажити / скачати мультфільм українською



відео для новачків



 Зареєстрований:   2020-06-16 22:48
 Розмір:   6.21 GB 
 Оцінка мультфільму:   8.9/10 (Голосів: 14)
   
Інші релізи
   Уперед / Onward (2020) 720p Ukr/Eng | Sub Eng staf777  37 / 0   3.59 GB   2020-06-13 08:34 
   Уперед / Onward (2020) 1080p Ukr/Eng | Sub Eng staf777  41 / 1   7.8 GB   2020-06-12 10:57 
   Уперед / Onward (2020) Ukr/Eng antik_2008  42 / 0   1.98 GB   2020-06-12 01:27 
   Уперед / Onward (2020) Remux 1080p Ukr/Eng | Sub Eng antik_2008  19 / 0   22.47 GB   2020-06-12 00:29 
   Уперед / Onward (2020) UHD Remux 4K 2160p Ukr/Eng | Sub Eng antik_2008  16 / 0   34.59 GB   2020-06-12 00:18 
   Уперед / Onward (2020) 1080p 3D [Half OverUnder] Ukr/Eng | Sub Eng antik_2008  7 / 0   7.88 GB   2020-06-12 00:18 
   Уперед / Onward (2020) AVC Ukr/Eng | Sub Eng 11FrYkT  94 / 0   1.94 GB   2020-06-11 19:53 
Ваш часовий пояс: GMT + 2 Години

Нова тема   Відповісти