Зразковий самець / Zoolander (2001) AVC Ukr/Eng| Sub Ukr/Eng

Нові коментарі

Нова тема   Відповісти
Автор Повідомлення
staf777 
Відео Гуртом - підтримка та поширення
Відео Гуртом - підтримка та поширення


З нами з: 16.11.16
Востаннє: 06.07.20
Повідомлень: 3829

2020-06-16 13:18  
Зразковий самець / Zoolander (2001) AVC Ukr/Eng| Sub Ukr/Eng

Зразковий самець / Zoolander (2001) AVC Ukr/Eng| Sub Ukr/Eng


Жанр: комедія
Країна: США, Австралiя, Німеччина



Кінокомпанія: Paramount Pictures, Village Roadshow Pictures, VH1 Television
Режисер: Бен Стіллер
Актори: Бен Стіллер, Оуен Вілсон, Христина Тейлор, Вілл Фарел, Мілла Йовович та інші.

Сюжет:
Супермодель Дерек Зуландер - секс-символ, мiльйонер та самозакоханий дурник. Вiн тричi ставав "моделлю року" i був упевнений, що завоює цей титул вчетверте, проте поступився молодшому колезi. Пiсля невдалої спроби повернутися до своєї родини Дерек виявляється вплутаним у змову з метою вбити прем'єр-мiнiстра Малайзiї...


Тривалість: 01:29:12
Якість: AVC
Відео:
кодек:
розмір кадру: 1024x436
бітрейт: 2500 кб/с

Аудіо # 1:
мова: українська
переклад: багатоголосий закадровий
кодек: 2.0
бітрейт: 192 кб/с

Аудіо # 2:
мова: англійська
переклад: оригінал
кодек: 5.1
бітрейт: 448 кб/с

Субтитри # 1:
мова: українська
тип: програмні (м'які)
формат: *.srt

Субтитри # 2:
мова: англійська
тип: програмні (м'які)
формат: *.srt
MI
General
Unique ID : 39505029546450370751158899666670359555 (0x1DB86455E6964655735028BA8E6C9403)
Complete name : Z:\Фільми AVC\Комедія\Zoolander (2001) AVC [UKR_ENG] [Hurtom].
Format :
Format version : Version 4
File size : 1.96 GiB
Duration : 1 h 29 min
Overall bit rate : 3 122 kb/s
Movie name : Зразковий самець / Zoolander (2001) AVC [UKR_ENG] [Hurtom]
Encoded date : UTC 2020-06-16 09:57:59
Writing application : v46.0.0 ('No Deeper Escape') 64-bit
Writing library : libebml v1.3.10 + v1.5.2
Cover : Yes
Attachments : cover.jpg

Video
ID : 1
Format : AVC
Format/Info : Advanced Video Codec
Format profile : [email protected]
Format settings : CABAC / 8 Ref Frames
Format settings, CABAC : Yes
Format settings, Reference : 8 frames
Codec ID : V_MPEG4/ISO/AVC
Duration : 1 h 29 min
Bit rate : 2 500 kb/s
Width : 1 024 pixels
Height : 436 pixels
Display aspect ratio : 2.35:1
Frame rate mode : Constant
Frame rate : 23.976 (24000/1001) FPS
Color space : YUV
Chroma subsampling : 4:2:0
Bit depth : 8 bits
Scan type : Progressive
Bits/(Pixel*Frame) : 0.234
Stream size : 1.56 GiB (80%)
Title : Rip by Enigma-Vladislav71
Writing library : core 116 r2074 2641b9e
Encoding settings : cabac=1 / ref=8 / deblock=1:-2:-2 / analyse=0x3:0x133 / me=umh / subme=11 / psy=1 / psy_rd=1.00:0.00 / mixed_ref=1 / me_range=48 / chroma_me=1 / trellis=2 / 8x8dct=1 / cqm=0 / deadzone=21,11 / fast_pskip=0 / chroma_qp_offset=-2 / threads=3 / sliced_threads=0 / nr=0 / decimate=1 / interlaced=0 / bluray_compat=0 / constrained_intra=0 / bframes=8 / b_pyramid=2 / b_adapt=2 / b_bias=0 / direct=3 / weightb=1 / open_gop=0 / weightp=2 / keyint=240 / keyint_min=23 / scenecut=40 / intra_refresh=0 / rc=2pass / mbtree=0 / bitrate=2500 / ratetol=1.0 / qcomp=0.60 / qpmin=10 / qpmax=51 / qpstep=4 / cplxblur=20.0 / qblur=0.5 / ip_ratio=1.40 / pb_ratio=1.30 / aq=2:1.00
Language : English
Default : No
Forced : No

Audio #1
ID : 2
Format : AC-3
Format/Info : Audio Coding 3
Commercial name : Dolby Digital
Codec ID : A_AC3
Duration : 1 h 29 min
Bit rate mode : Constant
Bit rate : 192 kb/s
Channel(s) : 2 channels
Channel layout : L R
Sampling rate : 48.0 kHz
Frame rate : 31.250 FPS (1536 SPF)
Compression mode : Lossy
Stream size : 122 MiB (6%)
Title : 2.0 @ 192 kbps -Багатоголосий закадровий
Language : Ukrainian
Service kind : Complete Main
Default : Yes
Forced : Yes

Audio #2
ID : 3
Format : AC-3
Format/Info : Audio Coding 3
Commercial name : Dolby Digital
Codec ID : A_AC3
Duration : 1 h 29 min
Bit rate mode : Constant
Bit rate : 448 kb/s
Channel(s) : 6 channels
Channel layout : L R C LFE Ls Rs
Sampling rate : 48.0 kHz
Frame rate : 31.250 FPS (1536 SPF)
Compression mode : Lossy
Stream size : 286 MiB (14%)
Title : 5.1 @ 448 kbps
Language : English
Service kind : Complete Main
Default : No
Forced : No

Text #1
ID : 4
Format : UTF-8
Codec ID : S_TEXT/UTF8
Codec ID/Info : UTF-8 Plain Text
Duration : 1 h 28 min
Bit rate : 111 b/s
Count of elements : 1316
Stream size : 72.5 KiB (0%)
Title : нетфлікс
Language : Ukrainian
Default : No
Forced : No

Text #2
ID : 5
Format : UTF-8
Codec ID : S_TEXT/UTF8
Codec ID/Info : UTF-8 Plain Text
Duration : 1 h 24 min
Bit rate : 78 b/s
Count of elements : 1346
Stream size : 48.7 KiB (0%)
Language : English
Default : No
Forced : No

Menu
00:00:00.000 : en:Chapter 01
00:02:51.629 : en:Chapter 02
00:03:44.474 : en:Chapter 03
00:11:32.191 : en:Chapter 04
00:13:22.801 : en:Chapter 05
00:16:31.365 : en:Chapter 06
00:18:54.633 : en:Chapter 07
00:20:50.707 : en:Chapter 08
00:22:10.579 : en:Chapter 09
00:23:14.893 : en:Chapter 10
00:24:00.230 : en:Chapter 11
00:26:45.812 : en:Chapter 12
00:32:57.934 : en:Chapter 13
00:35:46.978 : en:Chapter 14
00:38:27.221 : en:Chapter 15
00:39:03.841 : en:Chapter 16
00:43:10.296 : en:Chapter 17
00:47:47.239 : en:Chapter 18
00:49:01.730 : en:Chapter 19
00:54:53.540 : en:Chapter 20
00:58:06.900 : en:Chapter 21
01:02:57.148 : en:Chapter 22
01:06:23.938 : en:Chapter 23
01:08:31.732 : en:Chapter 24
01:11:10.015 : en:Chapter 25
01:12:34.683 : en:Chapter 26
01:14:48.942 : en:Chapter 27
01:16:24.288 : en:Chapter 28
01:18:36.002 : en:Chapter 29
01:21:11.825 : en:Chapter 30

Подяка leicheman за укр. саби
Джерело:


Срібний реліз (на рейтинг впливає 50% завантаженого)
 Трекер:    Зареєстрований   

Завантажити / скачати фільм українською



відео для новачків



 Зареєстрований:   2020-06-16 13:18
 Розмір:   1.96 GB 
 Оцінка фільму:   7.6/10 (Голосів: 5)
   
Інші релізи
   Зразковий самець / Zoolander (2001) Ukr/Eng 11FrYkT  3 / 0   1.66 GB   2012-07-11 09:43 
   Зразковий самець / Zoolander (2001) 720p Ukr/Eng | Sub Eng 11FrYkT  0 / 1   4.97 GB   2012-07-10 16:50 
Ваш часовий пояс: GMT + 2 Години

Нова тема   Відповісти